找回密码

蓝光电影网

查看: 628|回复: 1

[剧情] 欧米茄综合症 Omega.Syndrome.1986.1080p.BluRay.REMUX.AVC.DTS-HD.MA.2.0-FGT 20.09GB

[复制链接]
蓝光币
1022
发表于 2020-2-1 17:57:08 | 显示全部楼层 |阅读模式
欧米茄综合症 Omega.Syndrome.1986.1080p.BluRay.REMUX.AVC.DTS-HD.MA.2.0-FGT 20.09GB-1.png

译  名 欧米茄综合症
片  名 Omega Syndrome
年  代 1987
产  地 美国
类  别 剧情 / 行动
语  言 英语
上映日期 1987
IMDb评分  4.6/10 from 131 users
IMDb链接  https://www.imdb.com/title/tt0093671
豆瓣评分 0/10 from 0 users
豆瓣链接 https://movie.douban.com/subject/5047367/
片  长 90 分钟
导  演 Joseph Manduke
编  剧 John Sharkey
主  演 肯·沃尔 Ken Wahl
       乔治·第桑佐 George DiCenzo
       妮可尔·埃格特 Nicole Eggert
       Xander Berkeley
       Ron Kuhlman


标  签 被轻忽的电影

简  介  

  An ex-GI's daughter is abducted by a gang of white supremacists. He calls on one of his former Army buddies, and together they set out to track down the gang and rescue his daughter.
  1. Video
  2. ID                                       : 1
  3. Format                                   : AVC
  4. Format/Info                              : Advanced Video Codec
  5. Format profile                           : [email protected]
  6. Format settings                          : CABAC / 4 Ref Frames
  7. Format settings, CABAC                   : Yes
  8. Format settings, Reference frames        : 4 frames
  9. Format settings, GOP                     : M=3, N=12
  10. Codec ID                                 : V_MPEG4/ISO/AVC
  11. Duration                                 : 1 h 29 min
  12. Bit rate mode                            : Variable
  13. Bit rate                                 : 30.1 Mb/s
  14. Maximum bit rate                         : 35.0 Mb/s
  15. Width                                    : 1 920 pixels
  16. Height                                   : 1 080 pixels
  17. Display aspect ratio                     : 16:9
  18. Frame rate mode                          : Constant
  19. Frame rate                               : 23.976 (24000/1001) FPS
  20. Standard                                 : NTSC
  21. Color space                              : YUV
  22. Chroma subsampling                       : 4:2:0
  23. Bit depth                                : 8 bits
  24. Scan type                                : Progressive
  25. Bits/(Pixel*Frame)                       : 0.605
  26. Stream size                              : 18.7 GiB (93%)
  27. Title                                    : Omega.Syndrome.1986.1080p.BluRay.REMUX.AVC.DTS-HD.MA.2.0-FGT
  28. Language                                 : English
  29. Default                                  : No
  30. Forced                                   : No
  31. Color range                              : Limited
  32. Color primaries                          : BT.709
  33. Transfer characteristics                 : BT.709
  34. Matrix coefficients                      : BT.709

  35. Audio
  36. ID                                       : 2
  37. Format                                   : DTS XLL
  38. Format/Info                              : Digital Theater Systems
  39. Commercial name                          : DTS-HD Master Audio
  40. Codec ID                                 : A_DTS
  41. Duration                                 : 1 h 29 min
  42. Bit rate mode                            : Variable
  43. Bit rate                                 : 2 169 kb/s
  44. Channel(s)                               : 2 channels
  45. Sampling rate                            : 48.0 kHz
  46. Frame rate                               : 93.750 FPS (512 SPF)
  47. Bit depth                                : 24 bits
  48. Compression mode                         : Lossless
  49. Stream size                              : 1.35 GiB (7%)
  50. Title                                    : Omega.Syndrome.1986.1080p.BluRay.REMUX.AVC.DTS-HD.MA.2.0-FGT
  51. Language                                 : English
  52. Default                                  : Yes
  53. Forced                                   : No

  54. Text
  55. ID                                       : 3
  56. Format                                   : PGS
  57. Muxing mode                              : zlib
  58. Codec ID                                 : S_HDMV/PGS
  59. Codec ID/Info                            : Picture based subtitle format used on BDs/HD-DVDs
  60. Duration                                 : 1 h 26 min
  61. Bit rate                                 : 22.6 kb/s
  62. Count of elements                        : 3065
  63. Stream size                              : 13.9 MiB (0%)
  64. Title                                    : English-PGS
  65. Language                                 : English
  66. Default                                  : Yes
  67. Forced                                   : No

  68. Menu
  69. 00:00:00.000                             : en:Chapter 01
  70. 00:08:14.869                             : en:Chapter 02
  71. 00:18:48.127                             : en:Chapter 03
  72. 00:27:46.790                             : en:Chapter 04
  73. 00:36:42.909                             : en:Chapter 05
  74. 00:45:30.477                             : en:Chapter 06
  75. 00:54:55.667                             : en:Chapter 07
  76. 01:02:08.349                             : en:Chapter 08
  77. 01:10:03.866                             : en:Chapter 09
  78. 01:18:43.927                             : en:Chapter 10
  79. 01:26:04.534                             : en:Chapter 11
复制代码

欧米茄综合症 Omega.Syndrome.1986.1080p.BluRay.REMUX.AVC.DTS-HD.MA.2.0-FGT 20.09GB-2.png 欧米茄综合症 Omega.Syndrome.1986.1080p.BluRay.REMUX.AVC.DTS-HD.MA.2.0-FGT 20.09GB-3.png 欧米茄综合症 Omega.Syndrome.1986.1080p.BluRay.REMUX.AVC.DTS-HD.MA.2.0-FGT 20.09GB-4.png






回复

使用道具 举报

懒得打字嘛,点击右侧快捷回复 【右侧内容,后台自定义】
您需要登录后才可以回帖 登录 | 立即加入

本版积分规则

Archiver|小黑屋| 蓝光电影网 |网站地图

Copyright © 2021 Comsenz Inc. Powered by 蓝光电影网

蓝光电影网

本站内容由用户自主分享和转载自互联网,转载目的在于传递更多信息,并不代表本网赞同其观点和对其真实性负责。

如有侵权、违反国家法律政策行为,请联系我们,我们会第一时间及时清除和处理!

举报反馈邮箱:[email protected]

快速回复 返回顶部 返回列表