找回密码

蓝光电影网

查看: 400|回复: 0

[剧情] 耕耘/你家小孩我來教 Farming.2018.1080p.BluRay.REMUX.AVC.DTS-HD.MA.5.1-FGT 18.00GB

[复制链接]
蓝光币
886
发表于 2020-2-1 17:58:16 | 显示全部楼层 |阅读模式
耕作/你家小孩我來教 Farming.2018.1080p.BluRay.REMUX.AVC.DTS-HD.MA.5.1-FGT 18.00GB-1.png

译  名 耕作 / 你家小孩我來教
片  名 Farming
年  代 2018
产  地 英国
类  别 剧情
语  言 英语
上映日期 2018-09-08(多伦多电影节)
IMDb评分  5.6/10 from 479 users
IMDb链接  https://www.imdb.com/title/tt1127881
豆瓣评分 0/10 from 0 users
豆瓣链接 https://movie.douban.com/subject/3269055/
片  长 107分钟
导  演 阿德沃尔·阿吉纽依-艾格拜吉 Adewale Akinnuoye-Agbaje
编  剧 阿德沃尔·阿吉纽依-艾格拜吉 Adewale Akinnuoye-Agbaje
主  演 凯特·贝金赛尔 Kate Beckinsale
       古古·姆巴塔-劳 Gugu Mbatha-Raw
       阿德沃尔·阿吉纽依-艾格拜吉 Adewale Akinnuoye-Agbaje
       杰美·温斯顿 Jaime Winston
       安·米切尔 Ann Mitchell
       西奥·巴克利姆比格斯 Theo Barklem-Biggs
       李·罗斯 Lee Ross
       柯斯莫·贾维斯 Cosmo Jarvis
       戴姆森·伊德瑞斯 Damson Idris
       詹姆斯·伊莱斯 James Eeles
       戴维·奥拉瓦莱·阿印德 David Olawale Ayinde
       John Dagleish
       Genevieve Nnaji
       Skye Lourie


标  签 英国 | 剧情 | 凯特贝金赛尔 | 2019 | [歐美] | KateBeckinsale

简  介  

  1970、80 年月,數萬名奈及利亞小孩被送到英國白人家庭寄養,他們的怙恃認為,此舉可讓小孩擁有更美好的未來。導演兼編劇本人,小時候就是這樣被送出寄養的小孩之一,片裡配角以其成長經歷為藍本。故事圍繞種族議題,有著《叢林熱》的成分政治關懷,一如《美國 X 檔案》對白人光頭黨提出批评,亦有《以父之名》的勵志动人。本片獨到之處,更在於創作者講述其成長過程所親身經歷的種種兇險,進而帶出一種黑格爾式的主奴辯證視角。
  亞迪威?亞金路維 - 亞格貝,1967 年诞生於英國,怙恃是來自奈及利亞的留學生。诞生 6 週後,被送到白人藍領家庭寄養。成長過程跌跌撞撞,一度加入極右白人光頭黨,亦曾自殺得逞。後改過改过,攻讀法令學位,被相中成為模特兒、演員。本片為其首部執導長片。
  1. Video
  2. ID                                       : 1
  3. Format                                   : AVC
  4. Format/Info                              : Advanced Video Codec
  5. Format profile                           : [email protected]
  6. Format settings                          : CABAC / 3 Ref Frames
  7. Format settings, CABAC                   : Yes
  8. Format settings, Reference frames        : 3 frames
  9. Codec ID                                 : V_MPEG4/ISO/AVC
  10. Duration                                 : 1 h 47 min
  11. Bit rate mode                            : Variable
  12. Bit rate                                 : 22.0 Mb/s
  13. Maximum bit rate                         : 37.0 Mb/s
  14. Width                                    : 1 920 pixels
  15. Height                                   : 1 080 pixels
  16. Display aspect ratio                     : 16:9
  17. Frame rate mode                          : Constant
  18. Frame rate                               : 23.976 (24000/1001) FPS
  19. Color space                              : YUV
  20. Chroma subsampling                       : 4:2:0
  21. Bit depth                                : 8 bits
  22. Scan type                                : Progressive
  23. Bits/(Pixel*Frame)                       : 0.442
  24. Stream size                              : 16.5 GiB (92%)
  25. Title                                    : Farming.2018.1080p.BluRay.REMUX.AVC.DTS-HD.MA.5.1-FGT
  26. Language                                 : English
  27. Default                                  : No
  28. Forced                                   : No

  29. Audio
  30. ID                                       : 2
  31. Format                                   : DTS XLL
  32. Format/Info                              : Digital Theater Systems
  33. Commercial name                          : DTS-HD Master Audio
  34. Codec ID                                 : A_DTS
  35. Duration                                 : 1 h 47 min
  36. Bit rate mode                            : Variable
  37. Bit rate                                 : 1 966 kb/s
  38. Channel(s)                               : 6 channels
  39. Channel layout                           : C L R Ls Rs LFE
  40. Sampling rate                            : 48.0 kHz
  41. Frame rate                               : 93.750 FPS (512 SPF)
  42. Bit depth                                : 16 bits
  43. Compression mode                         : Lossless
  44. Stream size                              : 1.48 GiB (8%)
  45. Title                                    : Farming.2018.1080p.BluRay.REMUX.AVC.DTS-HD.MA.5.1-FGT
  46. Language                                 : English
  47. Default                                  : Yes
  48. Forced                                   : No

  49. Text
  50. ID                                       : 3
  51. Format                                   : PGS
  52. Muxing mode                              : zlib
  53. Codec ID                                 : S_HDMV/PGS
  54. Codec ID/Info                            : Picture based subtitle format used on BDs/HD-DVDs
  55. Duration                                 : 50 s 280 ms
  56. Bit rate                                 : 22.4 kb/s
  57. Count of elements                        : 16
  58. Stream size                              : 137 KiB (0%)
  59. Title                                    : English-PGS
  60. Language                                 : English
  61. Default                                  : Yes
  62. Forced                                   : No

  63. Menu
  64. 00:00:00.000                             : en:Chapter 01
  65. 00:05:28.036                             : en:Chapter 02
  66. 00:15:22.004                             : en:Chapter 03
  67. 00:23:10.931                             : en:Chapter 04
  68. 00:34:49.504                             : en:Chapter 05
  69. 00:46:14.229                             : en:Chapter 06
  70. 00:55:27.532                             : en:Chapter 07
  71. 01:03:58.668                             : en:Chapter 08
  72. 01:12:10.159                             : en:Chapter 09
  73. 01:20:17.687                             : en:Chapter 10
  74. 01:28:30.763                             : en:Chapter 11
  75. 01:38:56.931                             : en:Chapter 12
复制代码

耕作/你家小孩我來教 Farming.2018.1080p.BluRay.REMUX.AVC.DTS-HD.MA.5.1-FGT 18.00GB-2.png 耕作/你家小孩我來教 Farming.2018.1080p.BluRay.REMUX.AVC.DTS-HD.MA.5.1-FGT 18.00GB-3.png 耕作/你家小孩我來教 Farming.2018.1080p.BluRay.REMUX.AVC.DTS-HD.MA.5.1-FGT 18.00GB-4.png






回复

使用道具 举报

懒得打字嘛,点击右侧快捷回复 【右侧内容,后台自定义】
您需要登录后才可以回帖 登录 | 立即加入

本版积分规则

Archiver|小黑屋| 蓝光电影网 |网站地图

Copyright © 2021 Comsenz Inc. Powered by 蓝光电影网

蓝光电影网

本站内容由用户自主分享和转载自互联网,转载目的在于传递更多信息,并不代表本网赞同其观点和对其真实性负责。

如有侵权、违反国家法律政策行为,请联系我们,我们会第一时间及时清除和处理!

举报反馈邮箱:[email protected]

快速回复 返回顶部 返回列表