找回密码

蓝光电影网

查看: 5687|回复: 11

[10bit.HDR] 极速车王 Ford.v.Ferrari.2019.2160p.UHD.BluRay.x265.10bit.HDR.DTS-HD.MA.TrueHD.7.1.Atmos-SWTYBLZ 22.19GB

  [复制链接]
蓝光币
1022
发表于 2020-2-2 00:01:21 | 显示全部楼层 |阅读模式
极速车王 Ford.v.Ferrari.2019.2160p.UHD.BluRay.x265.10bit.HDR.DTS-HD.MA.TrueHD.7.1.Atmos-SWTYBLZ 22.19GB-1.png

译  名 极速车王 / Go Like Hell / Kings of the Road / Le Mans '66 / 天堂驾驶 / 极速之王 / 极速传奇:褔特决战法拉利(港) / 福特大战法拉利 / 赛道狂人(台)
片  名 Ford v Ferrari
年  代 2019
产  地 美国 / 法国
类  别 剧情 / 列传 / 活动
语  言 英语 / 意大利语 / 法语 / 日语
上映日期 2019-08-30(特柳赖德电影节) / 2019-11-15(美国)
IMDb评分  8.2/10 from 99717 users
IMDb链接  https://www.imdb.com/title/tt1950186
豆瓣评分 8.5/10 from 31818 users
豆瓣链接 https://movie.douban.com/subject/6538866/
片  长 152分钟
导  演 詹姆斯·曼高德 James Mangold
编  剧 詹姆斯·曼高德 James Mangold / 杰斯·巴特沃斯 Jez Butterworth / 约翰-亨利·巴特沃斯 John-Henry Butterworth / 贾森·凯勒 Jason Keller / A·J·拜梅 A.J. Baime
主  演 马特·达蒙 Matt Damon
       克里斯蒂安·贝尔 Christian Bale
       乔·博恩瑟 Jon Bernthal
       诺亚·尤佩 Noah Jupe
       玛丽萨·佩特罗 Marisa Petroro
       凯特瑞娜·巴尔夫 Caitriona Balfe
       乔什·卢卡斯 Josh Lucas
       雷·迈克金农 Ray McKinnon
       约翰·约瑟夫·菲尔德 JJ Feild
       崔西·莱茨 Tracy Letts
       华莱士·朗翰 Wallace Langham
       乔纳森·拉帕格里拉 Jonathan LaPaglia
       斯特凡 Stefania Spampinato
       鲁道夫·马丁 Rudolf Martin
       拉奇兰·布坎南 Lachlan Buchanan
       瓦德·霍尔顿 Ward Horton
       肖恩·卡里甘 Sean Carrigan
       克里斯托弗·达尔加 Christopher Darga
       亚当·梅菲尔德 Adam Mayfield
       乔瓦尼索罗菲瓦 Giovanni Cirfiera
       乔·威廉森 Joe Williamson
       本杰明·里格比 Benjamin Rigby
       杰克·麦克马伦 Jack McMullen
       保罗·福克斯 Paul Fox
       雷莫·吉罗内 Remo Girone
       德鲁·劳施 Drew Rausch
       朱利安·米勒 Julian Miller
       艾拉姆·奥里安 Aylam Orian
       埃姆利·贝赫什蒂 Emil Beheshti
       蒂芙妮·伊冯娜·考克斯 Tiffany Yvonne Cox
       达林·库珀 Darin Cooper
       科拉多·因韦尔尼齐 Corrado Invernizzi
       特洛伊·迪林格 Troy Dillinger
       彼得·阿佩塞拉 Peter Arpesella
       斯凯勒·马歇尔 Skyler Marshall


标  签 赛车 | 列传 | 美国 | 实在事务改编 | 2019 | 剧情 | 活动 | 行动

简  介  

  基于实在故事,聚焦由汽车设想师卡罗尔·谢尔比率领的一队美国工程师、设想师,以及他旗下的英国车手肯·迈尔斯,亨利·福特二世要求谢尔比打造一辆全新的赛车,希望能在1966年的勒芒天下锦标赛上打败持久占主导职位的法拉利。终极福特GT40在勒芒24小时耐力赛中成功击败法拉利,并连任了1967和1968年的冠军。

获奖情况  

  第92届奥斯卡金像奖(2020)
  最好影片(提名)
  最好剪辑(提名) 迈克尔·麦卡斯克 / 安德鲁·巴克兰
  最好混音(提名) David Giammarco / 史蒂文·莫罗 / 保罗·马瑟
  最好音效剪辑(提名)

  第77届金球奖(2020)
  电影类 剧情片最好男配角(提名) 克里斯蒂安·贝尔

  第73届英国电影学院奖(2020)
  电影奖 最好摄影(提名) 芬顿·帕帕迈可
  电影奖 最好剪辑(提名) 迈克尔·麦卡斯克 / 安德鲁·巴克兰
  电影奖 最好音效(提名)

  第26届美国演员工会奖(2020)
  电影奖 最好男配角(提名) 克里斯蒂安·贝尔
  电影最好特技群戏(提名)

  第31届美国制片野生会奖(2020)
  最好电影制片人奖(提名)

  第34届美国摄影协会奖(2020)
  电影长片最好摄影(提名) 芬顿·帕帕迈可

  第70届美国剪辑工会奖(2020)
  剧情片最好剪辑(提名) 迈克尔·麦卡斯克 / 安德鲁·巴克兰

  第24届美国艺术指导工会奖(2020)
  电影奖 最好历史电影艺术指导(提名) 弗朗索瓦·奥杜伊

  第67届美国音效剪辑协会奖(2020)
  金卷轴奖 最好电影音效剪辑
  金卷轴奖 最好电影对白剪辑(提名)

  第18届美国视觉结果协会奖(2020)
  最好电影帮助视觉结果(提名)

  第56届美国声音结果协会奖(2020)
  真人电影最好音效

  第91届美国国家批评协会奖(2019)
  年度佳片

  第25届美国批评家挑选电影奖(2020)
  最好影片(提名)
  最好行动片(提名)
  最好摄影(提名)
  最好剪辑(提名)
  最好视觉结果(提名)

  第24届金卫星奖(2020)
  电影部分 最好剧情片(提名)
  电影部分 最好导演 詹姆斯·曼高德
  电影部分 剧情片最好男配角 克里斯蒂安·贝尔
  电影部分 最好原创剧本(提名) 杰斯·巴特沃斯 / 约翰-亨利·巴特沃斯 / 贾森·凯勒
  电影部分 最好原创配乐(提名)
  电影部分 最好摄影(提名)
  电影部分 最好视觉结果(提名)
  电影部分 最好剪辑
  电影部分 最好音效
  电影部分 最好美术指导(提名)

  第23届好莱坞电影奖(2019)
  年度导演 詹姆斯·曼高德
  年度剪辑 迈克尔·麦卡斯克 / 安德鲁·巴克兰
  年度音效 David Giammarco / Donald Sylvester / 史蒂文·莫罗 / 保罗·马瑟

  第18届华盛顿影评人协会奖(2019)
  最好剪辑

  第40届伦敦影评人协会奖(2020)
  年度英国/爱尔兰小演员(提名) 诺亚·尤佩

  第23届美国在线影评人协会奖(2020)
  最好剪辑(提名) 迈克尔·麦卡斯克 / 安德鲁·巴克兰

  1. Video
  2. ID                                       : 1
  3. Format                                   : HEVC
  4. Format/Info                              : High Efficiency Video Coding
  5. Format profile                           : Main [email protected]@High
  6. HDR format                               : SMPTE ST 2086, HDR10 compatible
  7. Codec ID                                 : V_MPEGH/ISO/HEVC
  8. Duration                                 : 2 h 32 min
  9. Bit rate                                 : 10.9 Mb/s
  10. Width                                    : 3 840 pixels
  11. Height                                   : 1 610 pixels
  12. Display aspect ratio                     : 2.40:1
  13. Frame rate mode                          : Constant
  14. Frame rate                               : 23.976 (24000/1001) FPS
  15. Color space                              : YUV
  16. Chroma subsampling                       : 4:2:0 (Type 2)
  17. Bit depth                                : 10 bits
  18. Bits/(Pixel*Frame)                       : 0.074
  19. Stream size                              : 11.6 GiB (53%)
  20. Title                                    : Ford.v.Ferrari.2019.2160p.UHD.BluRay.x265.10bit.HDR.DTS-HD.MA.TrueHD.7.1.Atmos-SWTYBLZ
  21. Writing library                          : x265 3.2+37-0aa6c346df23:[Windows][GCC 9.2.1][64 bit] 10bit
  22. Encoding settings                        : cpuid=1111039 / frame-threads=5 / numa-pools=32 / wpp / no-pmode / no-pme / no-psnr / no-ssim / log-level=2 / input-csp=1 / input-res=3840x1610 / interlace=0 / total-frames=219511 / level-idc=51 / high-tier=1 / uhd-bd=0 / ref=4 / no-allow-non-conformance / repeat-headers / annexb / aud / hrd / info / hash=0 / no-temporal-layers / no-open-gop / min-keyint=1 / keyint=24 / gop-lookahead=0 / bframes=4 / b-adapt=2 / b-pyramid / bframe-bias=0 / rc-lookahead=25 / lookahead-slices=4 / scenecut=40 / hist-scenecut=0 / radl=0 / no-splice / no-intra-refresh / ctu=64 / min-cu-size=8 / rect / no-amp / max-tu-size=32 / tu-inter-depth=1 / tu-intra-depth=1 / limit-tu=0 / rdoq-level=2 / dynamic-rd=0.00 / no-ssim-rd / signhide / no-tskip / nr-intra=0 / nr-inter=0 / no-constrained-intra / no-strong-intra-smoothing / max-merge=3 / limit-refs=3 / limit-modes / me=3 / subme=3 / merange=57 / temporal-mvp / no-frame-dup / no-hme / weightp / no-weightb / no-analyze-src-pics / deblock=-3:-3 / no-sao / no-sao-non-deblock / rd=4 / selective-sao=0 / no-early-skip / rskip / no-fast-intra / no-tskip-fast / no-cu-lossless / no-b-intra / no-splitrd-skip / rdpenalty=0 / psy-rd=2.00 / psy-rdoq=1.00 / no-rd-refine / no-lossless / cbqpoffs=0 / crqpoffs=0 / rc=crf / crf=17.0 / qcomp=0.60 / qpstep=4 / stats-write=0 / stats-read=0 / vbv-maxrate=160000 / vbv-bufsize=160000 / vbv-init=0.9 / crf-max=0.0 / crf-min=0.0 / ipratio=1.40 / pbratio=1.30 / aq-mode=2 / aq-strength=1.00 / cutree / zone-count=0 / no-strict-cbr / qg-size=32 / no-rc-grain / qpmax=69 / qpmin=0 / no-const-vbv / sar=1 / overscan=0 / videoformat=5 / range=0 / colorprim=9 / transfer=16 / colormatrix=9 / chromaloc=1 / chromaloc-top=2 / chromaloc-bottom=2 / display-window=0 / master-display=G(13250,34500)B(7500,3000)R(34000,16000)WP(15635,16450)L(10000000,50) / cll=0,0 / min-luma=0 / max-luma=1023 / log2-max-poc-lsb=8 / vui-timing-info / vui-hrd-info / slices=1 / no-opt-qp-pps / no-opt-ref-list-length-pps / no-multi-pass-opt-rps / scenecut-bias=0.05 / hist-threshold=0.01 / no-opt-cu-delta-qp / no-aq-motion / hdr10 / hdr10-opt / no-dhdr10-opt / no-idr-recovery-sei / analysis-reuse-level=0 / analysis-save-reuse-level=0 / analysis-load-reuse-level=0 / scale-factor=0 / refine-intra=0 / refine-inter=0 / refine-mv=1 / refine-ctu-distortion=0 / no-limit-sao / ctu-info=0 / no-lowpass-dct / refine-analysis-type=0 / copy-pic=1 / max-ausize-factor=1.0 / no-dynamic-refine / no-single-sei / no-hevc-aq / no-svt / no-field / qp-adaptation-range=1.00 / no-scenecut-aware-qpconformance-window-offsets / right=0 / bottom=0
  23. Default                                  : Yes
  24. Forced                                   : No
  25. Color range                              : Limited
  26. Color primaries                          : BT.2020
  27. Transfer characteristics                 : PQ
  28. Matrix coefficients                      : BT.2020 non-constant
  29. Mastering display color primaries        : Display P3
  30. Mastering display luminance              : min: 0.0050 cd/m2, max: 1000 cd/m2

  31. Audio #1
  32. ID                                       : 2
  33. Format                                   : MLP FBA 16-ch
  34. Format/Info                              : Meridian Lossless Packing FBA with 16-channel presentation
  35. Commercial name                          : Dolby TrueHD with Dolby Atmos
  36. Codec ID                                 : A_TRUEHD
  37. Duration                                 : 2 h 32 min
  38. Bit rate mode                            : Variable
  39. Bit rate                                 : 4 561 kb/s
  40. Maximum bit rate                         : 9 933 kb/s
  41. Channel(s)                               : 8 channels
  42. Channel layout                           : L R C LFE Ls Rs Lb Rb
  43. Sampling rate                            : 48.0 kHz
  44. Frame rate                               : 1 200.000 FPS (40 SPF)
  45. Compression mode                         : Lossless
  46. Stream size                              : 4.86 GiB (22%)
  47. Title                                    : Ford.v.Ferrari.2019.2160p.UHD.BluRay.x265.10bit.HDR.DTS-HD.MA.TrueHD.7.1.Atmos-SWTYBLZ
  48. Language                                 : English
  49. Default                                  : Yes
  50. Forced                                   : No
  51. Number of dynamic objects                : 13
  52. Bed channel count                        : 1 channel
  53. Bed channel configuration                : LFE

  54. Audio #2
  55. ID                                       : 3
  56. Format                                   : DTS XLL
  57. Format/Info                              : Digital Theater Systems
  58. Commercial name                          : DTS-HD Master Audio
  59. Codec ID                                 : A_DTS
  60. Duration                                 : 2 h 32 min
  61. Bit rate mode                            : Variable
  62. Bit rate                                 : 4 495 kb/s
  63. Channel(s)                               : 8 channels
  64. Channel layout                           : C L R LFE Lb Rb Lss Rss
  65. Sampling rate                            : 48.0 kHz
  66. Frame rate                               : 93.750 FPS (512 SPF)
  67. Bit depth                                : 24 bits
  68. Compression mode                         : Lossless
  69. Stream size                              : 4.79 GiB (22%)
  70. Title                                    : Ford.v.Ferrari.2019.2160p.UHD.BluRay.x265.10bit.HDR.DTS-HD.MA.TrueHD.7.1.Atmos-SWTYBLZ
  71. Default                                  : No
  72. Forced                                   : No

  73. Audio #3
  74. ID                                       : 4
  75. Format                                   : AC-3
  76. Format/Info                              : Audio Coding 3
  77. Commercial name                          : Dolby Digital
  78. Codec ID                                 : A_AC3
  79. Duration                                 : 2 h 32 min
  80. Bit rate mode                            : Constant
  81. Bit rate                                 : 640 kb/s
  82. Channel(s)                               : 6 channels
  83. Channel layout                           : L R C LFE Ls Rs
  84. Sampling rate                            : 48.0 kHz
  85. Frame rate                               : 31.250 FPS (1536 SPF)
  86. Bit depth                                : 16 bits
  87. Compression mode                         : Lossy
  88. Stream size                              : 699 MiB (3%)
  89. Title                                    : Ford.v.Ferrari.2019.2160p.UHD.BluRay.x265.10bit.HDR.DTS-HD.MA.TrueHD.7.1.Atmos-SWTYBLZ
  90. Language                                 : English
  91. Service kind                             : Complete Main
  92. Default                                  : No
  93. Forced                                   : No

  94. Text #1
  95. ID                                       : 5
  96. Format                                   : UTF-8
  97. Codec ID                                 : S_TEXT/UTF8
  98. Codec ID/Info                            : UTF-8 Plain Text
  99. Duration                                 : 1 h 24 min
  100. Bit rate                                 : 0 b/s
  101. Count of elements                        : 9
  102. Stream size                              : 304 Bytes (0%)
  103. Title                                    : English-FORCED-SRT
  104. Language                                 : English
  105. Default                                  : Yes
  106. Forced                                   : Yes

  107. Text #2
  108. ID                                       : 6
  109. Format                                   : UTF-8
  110. Codec ID                                 : S_TEXT/UTF8
  111. Codec ID/Info                            : UTF-8 Plain Text
  112. Duration                                 : 2 h 32 min
  113. Bit rate                                 : 66 b/s
  114. Count of elements                        : 2498
  115. Stream size                              : 74.0 KiB (0%)
  116. Title                                    : English-SRT
  117. Language                                 : English
  118. Default                                  : No
  119. Forced                                   : No

  120. Text #3
  121. ID                                       : 7
  122. Format                                   : PGS
  123. Muxing mode                              : zlib
  124. Codec ID                                 : S_HDMV/PGS
  125. Codec ID/Info                            : Picture based subtitle format used on BDs/HD-DVDs
  126. Duration                                 : 1 h 24 min
  127. Bit rate                                 : 158 b/s
  128. Count of elements                        : 18
  129. Stream size                              : 97.7 KiB (0%)
  130. Title                                    : English-FORCED-PGS
  131. Language                                 : English
  132. Default                                  : No
  133. Forced                                   : Yes

  134. Text #4
  135. ID                                       : 8
  136. Format                                   : PGS
  137. Muxing mode                              : zlib
  138. Codec ID                                 : S_HDMV/PGS
  139. Codec ID/Info                            : Picture based subtitle format used on BDs/HD-DVDs
  140. Duration                                 : 2 h 32 min
  141. Bit rate                                 : 49.8 kb/s
  142. Count of elements                        : 4996
  143. Stream size                              : 54.3 MiB (0%)
  144. Title                                    : English-PGS
  145. Language                                 : English
  146. Default                                  : No
  147. Forced                                   : No

  148. Text #5
  149. ID                                       : 9
  150. Format                                   : PGS
  151. Muxing mode                              : zlib
  152. Codec ID                                 : S_HDMV/PGS
  153. Codec ID/Info                            : Picture based subtitle format used on BDs/HD-DVDs
  154. Duration                                 : 2 h 31 min
  155. Bit rate                                 : 20.6 kb/s
  156. Count of elements                        : 4136
  157. Stream size                              : 22.4 MiB (0%)
  158. Title                                    : Chinese-PGS
  159. Language                                 : Chinese
  160. Default                                  : No
  161. Forced                                   : No

  162. Text #6
  163. ID                                       : 10
  164. Format                                   : PGS
  165. Muxing mode                              : zlib
  166. Codec ID                                 : S_HDMV/PGS
  167. Codec ID/Info                            : Picture based subtitle format used on BDs/HD-DVDs
  168. Duration                                 : 2 h 31 min
  169. Bit rate                                 : 28.3 kb/s
  170. Count of elements                        : 4158
  171. Stream size                              : 30.6 MiB (0%)
  172. Title                                    : Chinese-PGS
  173. Language                                 : Chinese
  174. Default                                  : No
  175. Forced                                   : No

  176. Text #7
  177. ID                                       : 11
  178. Format                                   : PGS
  179. Muxing mode                              : zlib
  180. Codec ID                                 : S_HDMV/PGS
  181. Codec ID/Info                            : Picture based subtitle format used on BDs/HD-DVDs
  182. Duration                                 : 2 h 31 min
  183. Bit rate                                 : 34.2 kb/s
  184. Count of elements                        : 4130
  185. Stream size                              : 37.0 MiB (0%)
  186. Title                                    : French-PGS
  187. Language                                 : French
  188. Default                                  : No
  189. Forced                                   : No

  190. Text #8
  191. ID                                       : 12
  192. Format                                   : PGS
  193. Muxing mode                              : zlib
  194. Codec ID                                 : S_HDMV/PGS
  195. Codec ID/Info                            : Picture based subtitle format used on BDs/HD-DVDs
  196. Duration                                 : 2 h 31 min
  197. Bit rate                                 : 22.4 kb/s
  198. Count of elements                        : 4054
  199. Stream size                              : 24.2 MiB (0%)
  200. Title                                    : Japanese-PGS
  201. Language                                 : Japanese
  202. Default                                  : No
  203. Forced                                   : No

  204. Text #9
  205. ID                                       : 13
  206. Format                                   : PGS
  207. Muxing mode                              : zlib
  208. Codec ID                                 : S_HDMV/PGS
  209. Codec ID/Info                            : Picture based subtitle format used on BDs/HD-DVDs
  210. Duration                                 : 2 h 31 min
  211. Bit rate                                 : 26.5 kb/s
  212. Count of elements                        : 4108
  213. Stream size                              : 28.8 MiB (0%)
  214. Title                                    : Korean-PGS
  215. Language                                 : Korean
  216. Default                                  : No
  217. Forced                                   : No

  218. Text #10
  219. ID                                       : 14
  220. Format                                   : PGS
  221. Muxing mode                              : zlib
  222. Codec ID                                 : S_HDMV/PGS
  223. Codec ID/Info                            : Picture based subtitle format used on BDs/HD-DVDs
  224. Duration                                 : 2 h 31 min
  225. Bit rate                                 : 33.2 kb/s
  226. Count of elements                        : 3910
  227. Stream size                              : 36.0 MiB (0%)
  228. Title                                    : Spanish-PGS
  229. Language                                 : Spanish
  230. Default                                  : No
  231. Forced                                   : No

  232. Menu
  233. 00:00:00.000                             : en:Chapter 01
  234. 00:04:45.285                             : en:Chapter 02
  235. 00:07:32.202                             : en:Chapter 03
  236. 00:10:02.477                             : en:Chapter 04
  237. 00:15:38.980                             : en:Chapter 05
  238. 00:20:14.839                             : en:Chapter 06
  239. 00:21:39.465                             : en:Chapter 07
  240. 00:26:00.559                             : en:Chapter 08
  241. 00:31:57.541                             : en:Chapter 09
  242. 00:34:09.422                             : en:Chapter 10
  243. 00:39:12.934                             : en:Chapter 11
  244. 00:42:06.566                             : en:Chapter 12
  245. 00:45:56.671                             : en:Chapter 13
  246. 00:48:38.332                             : en:Chapter 14
  247. 00:51:21.745                             : en:Chapter 15
  248. 00:55:03.342                             : en:Chapter 16
  249. 00:57:50.467                             : en:Chapter 17
  250. 01:00:26.706                             : en:Chapter 18
  251. 01:06:33.156                             : en:Chapter 19
  252. 01:11:59.482                             : en:Chapter 20
  253. 01:16:13.444                             : en:Chapter 21
  254. 01:19:30.182                             : en:Chapter 22
  255. 01:24:18.428                             : en:Chapter 23
  256. 01:29:24.651                             : en:Chapter 24
  257. 01:33:15.840                             : en:Chapter 25
  258. 01:38:10.968                             : en:Chapter 26
  259. 01:40:57.134                             : en:Chapter 27
  260. 01:43:22.988                             : en:Chapter 28
  261. 01:45:48.884                             : en:Chapter 29
  262. 01:50:38.632                             : en:Chapter 30
  263. 01:53:38.020                             : en:Chapter 31
  264. 01:57:47.269                             : en:Chapter 32
  265. 02:00:16.334                             : en:Chapter 33
  266. 02:05:22.557                             : en:Chapter 34
  267. 02:09:18.042                             : en:Chapter 35
  268. 02:12:01.163                             : en:Chapter 36
  269. 02:15:26.076                             : en:Chapter 37
  270. 02:18:22.794                             : en:Chapter 38
  271. 02:20:46.104                             : en:Chapter 39
  272. 02:26:27.278                             : en:Chapter 40
复制代码
214018skhlfm8zflillfir.png 214018kwtceweo1zm9wkqw.png 214018slxvgg86149491dv.png




回复

使用道具 举报

蓝光币
70
发表于 2020-2-2 14:35:55 | 显示全部楼层
楼主发贴辛苦了,谢谢楼主分享!我觉得蓝光电影网是注册对了!
回复 支持 反对

使用道具 举报

蓝光币
1124
发表于 2020-2-2 14:36:09 | 显示全部楼层
楼主发贴辛苦了,谢谢楼主分享!我觉得蓝光电影网是注册对了!
回复 支持 反对

使用道具 举报

蓝光币
12
发表于 2020-2-2 14:53:29 | 显示全部楼层
我想我是一天也不能离开蓝光电影网。
回复 支持 反对

使用道具 举报

蓝光币
1184
发表于 2020-2-2 15:18:55 | 显示全部楼层
感谢分享,乐于下载!
回复 支持 反对

使用道具 举报

蓝光币
280
发表于 2020-2-2 16:28:41 | 显示全部楼层

楼主太厉害了!楼主,电影应该很好看我觉得蓝光电影网真是个好地方!
回复 支持 反对

使用道具 举报

蓝光币
14
发表于 2020-2-3 10:51:51 | 显示全部楼层

楼主发贴辛苦了,谢谢楼主分享!我觉得蓝光电影网是注册对了
回复 支持 反对

使用道具 举报

蓝光币
0
发表于 2020-2-3 17:05:22 | 显示全部楼层
楼主发贴辛苦了,谢谢楼主分享!我觉得蓝光电影网是注册对了!
回复 支持 反对

使用道具 举报

蓝光币
263
发表于 2020-2-4 19:24:01 | 显示全部楼层
楼主发贴辛苦了,谢谢楼主分享
回复 支持 反对

使用道具 举报

蓝光币
829
发表于 2020-2-7 09:53:59 | 显示全部楼层
楼主发贴辛苦了,谢谢楼主分享!我觉得蓝光电影网是注册对了!
回复 支持 反对

使用道具 举报

懒得打字嘛,点击右侧快捷回复 【右侧内容,后台自定义】
您需要登录后才可以回帖 登录 | 立即加入

本版积分规则

Archiver|小黑屋| 蓝光电影网 |网站地图

Copyright © 2021 Comsenz Inc. Powered by 蓝光电影网

蓝光电影网

本站内容由用户自主分享和转载自互联网,转载目的在于传递更多信息,并不代表本网赞同其观点和对其真实性负责。

如有侵权、违反国家法律政策行为,请联系我们,我们会第一时间及时清除和处理!

举报反馈邮箱:[email protected]

快速回复 返回顶部 返回列表