找回密码

蓝光电影网

查看: 308|回复: 0

[纪录] 二甲基色胺:精神分子/DMT:精神分子 Dmt.The.Spirit.Molecule.2010.1080p.NF.WEBRip.DD5.1.x264-TrollHD 5.57GB

[复制链接]
蓝光币
894
发表于 2020-2-2 00:04:07 | 显示全部楼层 |阅读模式
二甲基色胺:精神份子/DMT:精神份子 Dmt.The.Spirit.Molecule.2010.1080p.NF.WEBRip.DD5.1.x264-TrollHD 5.57GB-1.png

译  名 二甲基色胺:精神份子 / DMT:精神份子
片  名 DMT: The Spirit Molecule
年  代 2010
产  地 美国
类  别 记载片
语  言 英语
上映日期 2014-09-01(新西兰)
IMDb评分  7.2/10 from 4296 users
IMDb链接  https://www.imdb.com/title/tt1340425
豆瓣评分 8.0/10 from 160 users
豆瓣链接 https://movie.douban.com/subject/5177482/
片  长 75分钟
导  演 Mitch Schultz
编  剧 Mitch Schultz / Rick Strassman
主  演 Joe Rogan
       Ralph Abraham
       Joel Bakst


标  签 记载片 | DMT | 灵魂物资 | 科学 | Psychedelic | Documentary | 2014 | 美国

简  介  

  THE SPIRIT MOLECULE weaves an account of Dr. Rick Strassman's groundbreaking DMT research through a multifaceted approach to this intriguing hallucinogen found in the human brain and hundreds of plants, including the sacred Amazonian brew, ayahuasca. Utilizing interviews with a variety of experts to explain their thoughts and experiences with DMT, and ayahuasca, within their respective fields, and discussions with Strassman’s research volunteers, brings to life the awesome effects of this compound, and introduces us to far-reaching theories regarding its role in human consciousness.
  Several themes explored include possible roles for endogenous DMT, its theoretical role in near-death and birth experiences, alien-abduction experiences, and spiritual states, both within Eastern concepts of enlightenment and Western ideas regarding prophecy, and the uncanny similarities in Biblical prophetic texts describing DMT-like experiences. Our expert contributors offer a comprehensive collection of information, opinions, and speculation about indigenous use of DMT, the history and future of psychedelics within the research community, and within the larger social matrix, and current DMT research. All this, to help us understand the nature of the DMT experience, and its role in human culture and evolution.
  The subtle stimulating combination of science, spirituality, anthropology, sociology, and philosophy within the film’s approach sheds light on an array of ideas that could considerably alter the way humans understand the universe and their relationship to it.
  1. Video
  2. ID                                       : 1
  3. Format                                   : AVC
  4. Format/Info                              : Advanced Video Codec
  5. Format profile                           : [email protected]
  6. Format settings                          : CABAC / 4 Ref Frames
  7. Format settings, CABAC                   : Yes
  8. Format settings, Reference frames        : 4 frames
  9. Codec ID                                 : V_MPEG4/ISO/AVC
  10. Duration                                 : 1 h 14 min
  11. Bit rate                                 : 10.3 Mb/s
  12. Width                                    : 1 920 pixels
  13. Height                                   : 1 080 pixels
  14. Display aspect ratio                     : 16:9
  15. Frame rate mode                          : Constant
  16. Frame rate                               : 29.970 (30000/1001) FPS
  17. Color space                              : YUV
  18. Chroma subsampling                       : 4:2:0
  19. Bit depth                                : 8 bits
  20. Scan type                                : Progressive
  21. Bits/(Pixel*Frame)                       : 0.166
  22. Stream size                              : 5.37 GiB (96%)
  23. Writing library                          : x264 core 148 r2638 7599210
  24. Encoding settings                        : cabac=1 / ref=4 / deblock=1:-3:-3 / analyse=0x3:0x133 / me=umh / subme=10 / psy=1 / psy_rd=1.00:0.00 / mixed_ref=1 / me_range=48 / chroma_me=1 / trellis=2 / 8x8dct=1 / cqm=0 / deadzone=21,11 / fast_pskip=1 / chroma_qp_offset=-2 / threads=24 / lookahead_threads=4 / sliced_threads=0 / nr=0 / decimate=0 / interlaced=0 / bluray_compat=0 / constrained_intra=0 / bframes=8 / b_pyramid=2 / b_adapt=2 / b_bias=0 / direct=3 / weightb=1 / open_gop=0 / weightp=2 / keyint=300 / keyint_min=29 / scenecut=40 / intra_refresh=0 / rc=crf / mbtree=0 / crf=17.0 / qcomp=0.60 / qpmin=0 / qpmax=69 / qpstep=4 / ip_ratio=1.40 / pb_ratio=1.30 / aq=3:0.70
  25. Default                                  : Yes
  26. Forced                                   : No

  27. Audio
  28. ID                                       : 2
  29. Format                                   : AC-3
  30. Format/Info                              : Audio Coding 3
  31. Commercial name                          : Dolby Digital
  32. Codec ID                                 : A_AC3
  33. Duration                                 : 1 h 14 min
  34. Bit rate mode                            : Constant
  35. Bit rate                                 : 384 kb/s
  36. Channel(s)                               : 6 channels
  37. Channel layout                           : L R C LFE Ls Rs
  38. Sampling rate                            : 48.0 kHz
  39. Frame rate                               : 31.250 FPS (1536 SPF)
  40. Bit depth                                : 16 bits
  41. Compression mode                         : Lossy
  42. Stream size                              : 205 MiB (4%)
  43. Language                                 : English
  44. Service kind                             : Complete Main
  45. Default                                  : Yes
  46. Forced                                   : No

  47. Text #1
  48. ID                                       : 3
  49. Format                                   : UTF-8
  50. Codec ID                                 : S_TEXT/UTF8
  51. Codec ID/Info                            : UTF-8 Plain Text
  52. Duration                                 : 1 h 10 min
  53. Bit rate                                 : 111 b/s
  54. Count of elements                        : 1099
  55. Stream size                              : 58.2 KiB (0%)
  56. Language                                 : English
  57. Default                                  : Yes
  58. Forced                                   : No

  59. Text #2
  60. ID                                       : 4
  61. Format                                   : UTF-8
  62. Codec ID                                 : S_TEXT/UTF8
  63. Codec ID/Info                            : UTF-8 Plain Text
  64. Duration                                 : 1 h 11 min
  65. Bit rate                                 : 98 b/s
  66. Count of elements                        : 2158
  67. Stream size                              : 51.4 KiB (0%)
  68. Language                                 : English
  69. Default                                  : No
  70. Forced                                   : No

  71. Text #3
  72. ID                                       : 5
  73. Format                                   : UTF-8
  74. Codec ID                                 : S_TEXT/UTF8
  75. Codec ID/Info                            : UTF-8 Plain Text
  76. Duration                                 : 1 h 10 min
  77. Bit rate                                 : 116 b/s
  78. Count of elements                        : 1074
  79. Stream size                              : 60.4 KiB (0%)
  80. Language                                 : Spanish
  81. Default                                  : No
  82. Forced                                   : No
复制代码

二甲基色胺:精神份子/DMT:精神份子 Dmt.The.Spirit.Molecule.2010.1080p.NF.WEBRip.DD5.1.x264-TrollHD 5.57GB-2.png 二甲基色胺:精神份子/DMT:精神份子 Dmt.The.Spirit.Molecule.2010.1080p.NF.WEBRip.DD5.1.x264-TrollHD 5.57GB-1.png 二甲基色胺:精神份子/DMT:精神份子 Dmt.The.Spirit.Molecule.2010.1080p.NF.WEBRip.DD5.1.x264-TrollHD 5.57GB-4.png






回复

使用道具 举报

懒得打字嘛,点击右侧快捷回复 【右侧内容,后台自定义】
您需要登录后才可以回帖 登录 | 立即加入

本版积分规则

Archiver|小黑屋| 蓝光电影网 |网站地图

Copyright © 2021 Comsenz Inc. Powered by 蓝光电影网

蓝光电影网

本站内容由用户自主分享和转载自互联网,转载目的在于传递更多信息,并不代表本网赞同其观点和对其真实性负责。

如有侵权、违反国家法律政策行为,请联系我们,我们会第一时间及时清除和处理!

举报反馈邮箱:[email protected]

快速回复 返回顶部 返回列表