找回密码

蓝光电影网

查看: 234|回复: 0

[动作] 紧急突击队 Diplomatic.Siege.1999.1080p.WEB-DL.DD5.1.H264-FGT 3.58GB

[复制链接]
蓝光币
894
发表于 2020-2-2 00:06:45 | 显示全部楼层 |阅读模式
告急突击队 Diplomatic.Siege.1999.1080p.WEB-DL.DD5.1.H264-FGT 3.58GB-1.png

译  名 告急突击队 / DIPLOMATIC SIEGE / 重城围攻
片  名 Diplomatic Siege
年  代 1999
产  地 美国
类  别 行动 / 惊悚
语  言 英语
上映日期 1999-09-15
IMDb评分  3.9/10 from 1297 users
IMDb链接  https://www.imdb.com/title/tt0171227
豆瓣评分 0/10 from 0 users
豆瓣链接 https://movie.douban.com/subject/1301858/
片  长 90分钟
导  演 Gustavo Graef-Marino
编  剧 Kevin Bernhardt / Mark Amin / 罗伯特 鲍里斯 (Robert Boris)
主  演 彼得·威勒 Peter Weller
       达丽尔·汉纳 Daryl Hannah
       汤姆·贝伦杰 Tom Berenger


标  签 行动 | 犯罪 | 美国 | 电影 | 烂片 | 欧洲 | 美国电影 | 惊悚

简  介  

  报告了美军绑架了一位塞尔维亚可骇份子魁首,随行将送往国际法庭海牙受审,大为大怒的可骇份子因此决议对美国采纳报复行动:以武力占据位于波士尼亚的美国大使馆,并威胁若不将一切本国军力撤出波士尼亚,让塞尔维亚人接收,便要引爆核弹危险无辜公众。
  1. Video
  2. ID                                       : 1
  3. Format                                   : AVC
  4. Format/Info                              : Advanced Video Codec
  5. Format profile                           : [email protected]
  6. Format settings                          : CABAC / 4 Ref Frames
  7. Format settings, CABAC                   : Yes
  8. Format settings, Reference frames        : 4 frames
  9. Codec ID                                 : V_MPEG4/ISO/AVC
  10. Duration                                 : 1 h 34 min
  11. Bit rate                                 : 5 037 kb/s
  12. Width                                    : 1 908 pixels
  13. Height                                   : 1 068 pixels
  14. Display aspect ratio                     : 16:9
  15. Frame rate mode                          : Constant
  16. Frame rate                               : 23.976 (23976/1000) FPS
  17. Color space                              : YUV
  18. Chroma subsampling                       : 4:2:0
  19. Bit depth                                : 8 bits
  20. Scan type                                : Progressive
  21. Bits/(Pixel*Frame)                       : 0.103
  22. Stream size                              : 3.32 GiB (93%)
  23. Title                                    : Diplomatic.Siege.1999.1080p.WEB-DL.DD5.1.H.264-FGT
  24. Language                                 : English
  25. Default                                  : Yes
  26. Forced                                   : No
  27. Color range                              : Limited
  28. Color primaries                          : BT.709
  29. Transfer characteristics                 : BT.709
  30. Matrix coefficients                      : BT.709

  31. Audio
  32. ID                                       : 2
  33. Format                                   : AC-3
  34. Format/Info                              : Audio Coding 3
  35. Commercial name                          : Dolby Digital
  36. Codec ID                                 : A_AC3
  37. Duration                                 : 1 h 34 min
  38. Bit rate mode                            : Constant
  39. Bit rate                                 : 384 kb/s
  40. Channel(s)                               : 6 channels
  41. Channel layout                           : L R C LFE Ls Rs
  42. Sampling rate                            : 48.0 kHz
  43. Frame rate                               : 31.250 FPS (1536 SPF)
  44. Compression mode                         : Lossy
  45. Stream size                              : 259 MiB (7%)
  46. Title                                    : Diplomatic.Siege.1999.1080p.WEB-DL.DD5.1.H.264-FGT
  47. Language                                 : English
  48. Service kind                             : Complete Main
  49. Default                                  : Yes
  50. Forced                                   : No

  51. Text
  52. ID                                       : 3
  53. Format                                   : UTF-8
  54. Codec ID                                 : S_TEXT/UTF8
  55. Codec ID/Info                            : UTF-8 Plain Text
  56. Duration                                 : 1 h 30 min
  57. Bit rate                                 : 52 b/s
  58. Count of elements                        : 1249
  59. Stream size                              : 34.6 KiB (0%)
  60. Language                                 : English
  61. Default                                  : No
  62. Forced                                   : No

  63. Menu
  64. 00:00:00.000                             : en:Chapter 1
  65. 00:05:10.000                             : en:Chapter 2
  66. 00:13:47.000                             : en:Chapter 3
  67. 00:22:02.000                             : en:Chapter 4
  68. 00:31:33.000                             : en:Chapter 5
  69. 00:42:31.000                             : en:Chapter 6
  70. 00:51:18.000                             : en:Chapter 7
  71. 01:01:16.000                             : en:Chapter 8
  72. 01:12:50.000                             : en:Chapter 9
  73. 01:21:34.000                             : en:Chapter 10
  74. 01:30:09.000                             : en:Chapter 11
复制代码

告急突击队 Diplomatic.Siege.1999.1080p.WEB-DL.DD5.1.H264-FGT 3.58GB-2.png 告急突击队 Diplomatic.Siege.1999.1080p.WEB-DL.DD5.1.H264-FGT 3.58GB-3.png 告急突击队 Diplomatic.Siege.1999.1080p.WEB-DL.DD5.1.H264-FGT 3.58GB-4.png






回复

使用道具 举报

懒得打字嘛,点击右侧快捷回复 【右侧内容,后台自定义】
您需要登录后才可以回帖 登录 | 立即加入

本版积分规则

Archiver|小黑屋| 蓝光电影网 |网站地图

Copyright © 2021 Comsenz Inc. Powered by 蓝光电影网

蓝光电影网

本站内容由用户自主分享和转载自互联网,转载目的在于传递更多信息,并不代表本网赞同其观点和对其真实性负责。

如有侵权、违反国家法律政策行为,请联系我们,我们会第一时间及时清除和处理!

举报反馈邮箱:[email protected]

快速回复 返回顶部 返回列表