找回密码

蓝光电影网

查看: 177|回复: 0

[惊悚] 致命妄想 Deadly.Delusion.2017.1080p.AMZN.WEBRip.DDP2.0.x264-ABM 6.07GB

[复制链接]
蓝光币
1020
发表于 2020-2-2 00:07:43 | 显示全部楼层 |阅读模式
致命妄想 Deadly.Delusion.2017.1080p.AMZN.WEBRip.DDP2.0.x264-ABM 6.07GB-1.png

译  名 致命妄想 / The Lease / 租约
片  名 Deadly Delusion
年  代 2017
产  地 美国
类  别 惊悚
语  言 英语
上映日期 2017(美国) / 2018-06-15(法国) / 2018-08-25(西班牙/意大利)
IMDb评分  5.0/10 from 264 users
IMDb链接  https://www.imdb.com/title/tt6970616
豆瓣评分 0/10 from 0 users
豆瓣链接 https://movie.douban.com/subject/27667606/
片  长 89分钟
导  演 Nadeem Soumah
编  剧 Jake Cashill
主  演 海莉·达芙 Haylie Duff
       迈克·费欧拉 Mike Faiola
       特莉·保罗 Teri Polo
       路易·曼迪勒 Louis Mandylor
       梅丽莎·玛斯 Melissa Mars
       Michael Rene Walton
       Josie Achaval
       Cheryl Anderson
       Sara Bailey
       Justin Bigelli
       Del Brown
       Stephen Brown
       Leonel Claude
       Fernando Count
       Anthony De La Cruz


标  签 可骇电影 | 美国电影 | 2017

简  介  

  Hoping for a fresh start, Julia, a troubled woman, moves to Los Angeles with her new boyfriend. After settling into a new home, mysterious things begin to happen. It's not long before Julia becomes convinced that her demons have moved with her.
  1. Video
  2. ID                                       : 1
  3. Format                                   : AVC
  4. Format/Info                              : Advanced Video Codec
  5. Format profile                           : [email protected]
  6. Format settings                          : CABAC / 4 Ref Frames
  7. Format settings, CABAC                   : Yes
  8. Format settings, Reference frames        : 4 frames
  9. Codec ID                                 : V_MPEG4/ISO/AVC
  10. Duration                                 : 1 h 29 min
  11. Bit rate                                 : 9 267 kb/s
  12. Width                                    : 1 920 pixels
  13. Height                                   : 1 080 pixels
  14. Display aspect ratio                     : 16:9
  15. Frame rate mode                          : Constant
  16. Frame rate                               : 23.976 (24000/1001) FPS
  17. Color space                              : YUV
  18. Chroma subsampling                       : 4:2:0
  19. Bit depth                                : 8 bits
  20. Scan type                                : Progressive
  21. Bits/(Pixel*Frame)                       : 0.186
  22. Stream size                              : 5.81 GiB (96%)
  23. Language                                 : English
  24. Default                                  : Yes
  25. Forced                                   : No
  26. Color range                              : Limited
  27. Color primaries                          : BT.709
  28. Transfer characteristics                 : BT.709
  29. Matrix coefficients                      : BT.709

  30. Audio
  31. ID                                       : 2
  32. Format                                   : E-AC-3
  33. Format/Info                              : Enhanced AC-3
  34. Commercial name                          : Dolby Digital Plus
  35. Codec ID                                 : A_EAC3
  36. Duration                                 : 1 h 29 min
  37. Bit rate mode                            : Constant
  38. Bit rate                                 : 224 kb/s
  39. Channel(s)                               : 2 channels
  40. Channel layout                           : L R
  41. Sampling rate                            : 48.0 kHz
  42. Frame rate                               : 31.250 FPS (1536 SPF)
  43. Compression mode                         : Lossy
  44. Stream size                              : 144 MiB (2%)
  45. Language                                 : English
  46. Service kind                             : Complete Main
  47. Default                                  : Yes
  48. Forced                                   : No

  49. Text
  50. ID                                       : 3
  51. Format                                   : UTF-8
  52. Codec ID                                 : S_TEXT/UTF8
  53. Codec ID/Info                            : UTF-8 Plain Text
  54. Language                                 : English
  55. Default                                  : No
  56. Forced                                   : No
复制代码

致命妄想 Deadly.Delusion.2017.1080p.AMZN.WEBRip.DDP2.0.x264-ABM 6.07GB-2.png 致命妄想 Deadly.Delusion.2017.1080p.AMZN.WEBRip.DDP2.0.x264-ABM 6.07GB-3.png 致命妄想 Deadly.Delusion.2017.1080p.AMZN.WEBRip.DDP2.0.x264-ABM 6.07GB-4.png






回复

使用道具 举报

懒得打字嘛,点击右侧快捷回复 【右侧内容,后台自定义】
您需要登录后才可以回帖 登录 | 立即加入

本版积分规则

Archiver|小黑屋| 蓝光电影网 |网站地图

Copyright © 2021 Comsenz Inc. Powered by 蓝光电影网

蓝光电影网

本站内容由用户自主分享和转载自互联网,转载目的在于传递更多信息,并不代表本网赞同其观点和对其真实性负责。

如有侵权、违反国家法律政策行为,请联系我们,我们会第一时间及时清除和处理!

举报反馈邮箱:[email protected]

快速回复 返回顶部 返回列表