找回密码

蓝光电影网

查看: 244|回复: 0

[喜剧] 冒牌君主 Moon.Over.Parador.1988.1080p.AMZN.WEBRip.DDP2.0.x264-monkee 10.70GB

[复制链接]
蓝光币
1022
发表于 2020-2-2 11:29:10 | 显示全部楼层 |阅读模式
冒牌君主 Moon.Over.Parador.1988.1080p.AMZN.WEBRip.DDP2.0.x264-monkee 10.70GB-1.png

译  名 冒牌君主
片  名 Moon Over Parador
年  代 1988
产  地 美国
类  别 笑剧 / 恋爱 / 冒险
语  言 英语
上映日期 1988-09-09
IMDb评分  6.0/10 from 5192 users
IMDb链接  https://www.imdb.com/title/tt0095654
豆瓣评分 0/10 from 0 users
豆瓣链接 https://movie.douban.com/subject/1296261/
片  长 103 分钟
导  演 Paul Mazursky
编  剧 Leon Capetanos / Paul Mazursky
主  演 Richard Dreyfuss
       Raul Julia
       Sonia Braga


标  签 笑剧 | 1988 | 被轻忽的电影 | 美国电影 | 美国 | 恋爱 | WEB-DL | 冒险

简  介  

  杰克是个总是只差临门一脚即能够成为超级巨星的纽约演员,但他却一向碰不到好的表演机遇,但当他到加勒比海某个小岛国出外景的时辰,居然被当地的差人局长给绑架了!最出乎他料想的是差人局长还给了他一个终生可贵的表演机遇--饰演该国的独裁者总统,本来是由于该国总统心脏病发猝逝,为了避免公共纷扰或激发反动,差人局长只好出此下策;虽然假扮总统,欺骗社会公共是一件不道德、不法、欺骗的行为,但...
  1. Video
  2. ID                                       : 1
  3. Format                                   : AVC
  4. Format/Info                              : Advanced Video Codec
  5. Format profile                           : [email protected]
  6. Format settings                          : CABAC / 4 Ref Frames
  7. Format settings, CABAC                   : Yes
  8. Format settings, Reference frames        : 4 frames
  9. Codec ID                                 : V_MPEG4/ISO/AVC
  10. Duration                                 : 1 h 43 min
  11. Bit rate mode                            : Variable
  12. Bit rate                                 : 14.5 Mb/s
  13. Maximum bit rate                         : 15.0 Mb/s
  14. Width                                    : 1 920 pixels
  15. Height                                   : 1 080 pixels
  16. Display aspect ratio                     : 16:9
  17. Frame rate mode                          : Constant
  18. Frame rate                               : 23.976 (24000/1001) FPS
  19. Color space                              : YUV
  20. Chroma subsampling                       : 4:2:0
  21. Bit depth                                : 8 bits
  22. Scan type                                : Progressive
  23. Bits/(Pixel*Frame)                       : 0.292
  24. Stream size                              : 10.5 GiB (98%)
  25. Default                                  : Yes
  26. Forced                                   : No
  27. Color range                              : Limited
  28. Color primaries                          : BT.709
  29. Transfer characteristics                 : BT.709
  30. Matrix coefficients                      : BT.709

  31. Audio
  32. ID                                       : 2
  33. Format                                   : E-AC-3
  34. Format/Info                              : Enhanced AC-3
  35. Commercial name                          : Dolby Digital Plus
  36. Codec ID                                 : A_EAC3
  37. Duration                                 : 1 h 43 min
  38. Bit rate mode                            : Constant
  39. Bit rate                                 : 224 kb/s
  40. Channel(s)                               : 2 channels
  41. Channel layout                           : L R
  42. Sampling rate                            : 48.0 kHz
  43. Frame rate                               : 31.250 FPS (1536 SPF)
  44. Compression mode                         : Lossy
  45. Stream size                              : 166 MiB (2%)
  46. Language                                 : English
  47. Service kind                             : Complete Main
  48. Default                                  : Yes
  49. Forced                                   : No

  50. Text
  51. ID                                       : 3
  52. Format                                   : UTF-8
  53. Codec ID                                 : S_TEXT/UTF8
  54. Codec ID/Info                            : UTF-8 Plain Text
  55. Duration                                 : 1 h 38 min
  56. Bit rate                                 : 68 b/s
  57. Count of elements                        : 1814
  58. Stream size                              : 49.4 KiB (0%)
  59. Language                                 : English
  60. Default                                  : No
  61. Forced                                   : No
复制代码

冒牌君主 Moon.Over.Parador.1988.1080p.AMZN.WEBRip.DDP2.0.x264-monkee 10.70GB-2.png 冒牌君主 Moon.Over.Parador.1988.1080p.AMZN.WEBRip.DDP2.0.x264-monkee 10.70GB-1.png 冒牌君主 Moon.Over.Parador.1988.1080p.AMZN.WEBRip.DDP2.0.x264-monkee 10.70GB-4.png






回复

使用道具 举报

懒得打字嘛,点击右侧快捷回复 【右侧内容,后台自定义】
您需要登录后才可以回帖 登录 | 立即加入

本版积分规则

Archiver|小黑屋| 蓝光电影网 |网站地图

Copyright © 2021 Comsenz Inc. Powered by 蓝光电影网

蓝光电影网

本站内容由用户自主分享和转载自互联网,转载目的在于传递更多信息,并不代表本网赞同其观点和对其真实性负责。

如有侵权、违反国家法律政策行为,请联系我们,我们会第一时间及时清除和处理!

举报反馈邮箱:[email protected]

快速回复 返回顶部 返回列表