找回密码

蓝光电影网

查看: 182|回复: 0

[惊悚] 阁楼里的花/閣樓裡的小花(港译) Flowers.In.The.Attic.2014.1080p.AMZN.WEBRip.DDP2.0.x264-ABM 5.41GB

[复制链接]
蓝光币
886
发表于 2020-2-2 11:30:46 | 显示全部楼层 |阅读模式
阁楼里的花/閣樓裡的小花(港译) Flowers.In.The.Attic.2014.1080p.AMZN.WEBRip.DDP2.0.x264-ABM 5.41GB-1.png

译  名 阁楼里的花 / 閣樓裡的小花(港译)
片  名 Flowers in the Attic
年  代 2014
产  地 美国 / 加拿大
类  别 剧情 / 悬疑 / 惊悚
语  言 英语
上映日期 2014-01-18(美国)
IMDb评分  6.1/10 from 8531 users
IMDb链接  https://www.imdb.com/title/tt3074694
豆瓣评分 6.7/10 from 2188 users
豆瓣链接 https://movie.douban.com/subject/25773175/
片  长 86分钟
导  演 Deborah Chow
编  剧 Kayla Alpert / Virginia C. Andrews
主  演 Mason Dye
       海瑟·格拉汉姆 Heather Graham
       迪兰·布鲁斯 Dylan Bruce
       琪兰·席普卡 Kiernan Shipka
       查德·威列 Chad Willett
       艾伦·伯斯汀 Ellen Burstyn
       Ava Telek
       Maxwell Kovach
       Beau Daniels
       Laura Jaye
       John Emmet Tracy
       Don Thompson


标  签 阁楼之花 | 伦理 | 美国 | 悬疑 | 美国电影 | 剧情 | 人性 | 小说改编

简  介  

  本片按照V.C.Andrew备受争议的典范著作改编而成,故事报告了一个关系复杂感情扭曲的家庭故事。在父亲意外灭亡后,自认是花瓶的母亲把兄妹四人带到了祖母的豪宅里,诡计获得家属财富。但是祖母的刻毒无情却令孩子们难以忍受、百思不得其解,他们不能不住在狭窄的阁楼里,天天看祖母的脸色生活,但是随着时候的推移,他们才渐渐发现,祖母冷酷严厉的真正缘由何在,而这个家庭扭曲复杂的感情关系也恍如像一个魔咒缠绕着他们青春悸动的心。

获奖情况  

  第66届黄金时段艾美奖(2014)
  迷你剧/电视电影 最好女配角(提名) 艾伦·伯斯汀
  1. Video
  2. ID                                       : 1
  3. Format                                   : AVC
  4. Format/Info                              : Advanced Video Codec
  5. Format profile                           : [email protected]
  6. Format settings                          : CABAC / 4 Ref Frames
  7. Format settings, CABAC                   : Yes
  8. Format settings, Reference frames        : 4 frames
  9. Codec ID                                 : V_MPEG4/ISO/AVC
  10. Duration                                 : 1 h 29 min
  11. Bit rate mode                            : Variable
  12. Bit rate                                 : 8 213 kb/s
  13. Maximum bit rate                         : 15.0 Mb/s
  14. Width                                    : 1 920 pixels
  15. Height                                   : 1 080 pixels
  16. Display aspect ratio                     : 16:9
  17. Frame rate mode                          : Constant
  18. Frame rate                               : 23.976 (24000/1001) FPS
  19. Color space                              : YUV
  20. Chroma subsampling                       : 4:2:0
  21. Bit depth                                : 8 bits
  22. Scan type                                : Progressive
  23. Bits/(Pixel*Frame)                       : 0.165
  24. Stream size                              : 5.16 GiB (95%)
  25. Writing library                          : x264 core 148 r2623 d5b2374
  26. Encoding settings                        : cabac=1 / ref=4 / deblock=1:-1:-1 / analyse=0x3:0x133 / me=umh / subme=9 / psy=1 / psy_rd=1.00:0.15 / mixed_ref=1 / me_range=24 / chroma_me=1 / trellis=2 / 8x8dct=1 / cqm=0 / deadzone=21,11 / fast_pskip=1 / chroma_qp_offset=-3 / threads=34 / lookahead_threads=5 / sliced_threads=0 / nr=150 / decimate=1 / interlaced=0 / bluray_compat=0 / constrained_intra=0 / bframes=8 / b_pyramid=2 / b_adapt=2 / b_bias=0 / direct=3 / weightb=1 / open_gop=0 / weightp=2 / keyint=120 / keyint_min=61 / scenecut=0 / intra_refresh=0 / rc_lookahead=120 / rc=crf / mbtree=1 / crf=18.0 / qcomp=0.60 / qpmin=0 / qpmax=69 / qpstep=4 / vbv_maxrate=15000 / vbv_bufsize=31250 / crf_max=0.0 / nal_hrd=vbr / filler=0 / ip_ratio=1.40 / aq=3:1.00
  27. Language                                 : English
  28. Default                                  : Yes
  29. Forced                                   : No
  30. Color range                              : Limited
  31. Color primaries                          : BT.709
  32. Transfer characteristics                 : BT.709
  33. Matrix coefficients                      : BT.709

  34. Audio
  35. ID                                       : 2
  36. Format                                   : E-AC-3
  37. Format/Info                              : Enhanced AC-3
  38. Commercial name                          : Dolby Digital Plus
  39. Codec ID                                 : A_EAC3
  40. Duration                                 : 1 h 29 min
  41. Bit rate mode                            : Constant
  42. Bit rate                                 : 224 kb/s
  43. Channel(s)                               : 2 channels
  44. Channel layout                           : L R
  45. Sampling rate                            : 48.0 kHz
  46. Frame rate                               : 31.250 FPS (1536 SPF)
  47. Compression mode                         : Lossy
  48. Stream size                              : 144 MiB (3%)
  49. Language                                 : English
  50. Service kind                             : Complete Main
  51. Default                                  : Yes
  52. Forced                                   : No

  53. Text
  54. ID                                       : 3
  55. Format                                   : UTF-8
  56. Codec ID                                 : S_TEXT/UTF8
  57. Codec ID/Info                            : UTF-8 Plain Text
  58. Language                                 : English
  59. Default                                  : No
  60. Forced                                   : No

  61. Menu
  62. 00:00:00.000                             : en:Viewer Discretion
  63. 00:00:03.000                             : en:Cathy reflects about her time at Foxworth Hall, Opening Credits
  64. 00:02:01.000                             : en:Title Sequence
  65. 00:02:12.000                             : en:The children welcome their father home
  66. 00:05:42.000                             : en:Corrine and the children get ready for the party
  67. 00:07:36.000                             : en:Corrine struggles with finances
  68. 00:09:43.000                             : en:Corrine tells Christopher and Cathy about her family
  69. 00:12:04.000                             : en:Corrine travels back to her home with her children
  70. 00:14:03.000                             : en:The children meet their grandmother
  71. 00:19:21.000                             : en:The children wake up to recieve food and a list of rules from Grandmother
  72. 00:21:47.000                             : en:The children explore and play in the attic
  73. 00:24:34.000                             : en:Grandmother humiliates Corrine in front of her children
  74. 00:28:11.000                             : en:Corrine tells her children about her past
  75. 00:30:53.000                             : en:Grandmother accuses Cathy of wickedness
  76. 00:33:49.000                             : en:Cathy confronts Corrine about when they are leaving
  77. 00:36:06.000                             : en:Christopher finds Cory unconscious
  78. 00:37:14.000                             : en:Cathy comforts Cory
  79. 00:38:18.000                             : en:The children celebrate Christmas
  80. 00:42:13.000                             : en:Corrine lets Christopher and Cathy watch the party
  81. 00:47:01.000                             : en:Christopher explores the house
  82. 00:47:58.000                             : en:Corrine slaps Christopher for not being back in the room
  83. 00:48:49.000                             : en:Corrine gives her children the option to leave
  84. 00:50:48.000                             : en:Cathy realizes they\'ve been locked in the attic for a year
  85. 00:52:01.000                             : en:Cathy and Christopher\'s bodies begin to change
  86. 00:56:32.000                             : en:Christopher cuts Cathy\'s hair
  87. 00:58:09.000                             : en:Cathy and Christopher start thinking of ways to leave the attic
  88. 01:02:21.000                             : en:Corrine returns from her honeymoon with Bart
  89. 01:04:28.000                             : en:Grandmother brings donuts for the children
  90. 01:08:00.000                             : en:Christopher begs for forgiveness from Grandmother
  91. 01:09:33.000                             : en:Christopher makes a copy of the master key
  92. 01:12:10.000                             : en:Cathy kisses Bart while Christopher inspects the electric fence
  93. 01:14:28.000                             : en:Cathy and Christopher try to take care of Cory
  94. 01:17:49.000                             : en:Corrine explains Cory\'s sickness
  95. 01:19:38.000                             : en:Cathy and Christopher realize Corrine has left
  96. 01:20:24.000                             : en:Cathy and Christopher prepare their escape
  97. 01:26:06.000                             : en:Christopher and Cathy flee for their lives
  98. 01:27:45.000                             : en:Christopher and Cathy begin their new lives together
  99. 01:28:38.000                             : en:Grandmother watches from the attic
  100. 01:28:58.000                             : en:End Credits
复制代码

阁楼里的花/閣樓裡的小花(港译) Flowers.In.The.Attic.2014.1080p.AMZN.WEBRip.DDP2.0.x264-ABM 5.41GB-2.png 阁楼里的花/閣樓裡的小花(港译) Flowers.In.The.Attic.2014.1080p.AMZN.WEBRip.DDP2.0.x264-ABM 5.41GB-3.png 阁楼里的花/閣樓裡的小花(港译) Flowers.In.The.Attic.2014.1080p.AMZN.WEBRip.DDP2.0.x264-ABM 5.41GB-4.png






回复

使用道具 举报

懒得打字嘛,点击右侧快捷回复 【右侧内容,后台自定义】
您需要登录后才可以回帖 登录 | 立即加入

本版积分规则

Archiver|小黑屋| 蓝光电影网 |网站地图

Copyright © 2021 Comsenz Inc. Powered by 蓝光电影网

蓝光电影网

本站内容由用户自主分享和转载自互联网,转载目的在于传递更多信息,并不代表本网赞同其观点和对其真实性负责。

如有侵权、违反国家法律政策行为,请联系我们,我们会第一时间及时清除和处理!

举报反馈邮箱:[email protected]

快速回复 返回顶部 返回列表