找回密码

蓝光电影网

查看: 309|回复: 0

[动作] 镭射!皮特的海盗团 Pete.Winning.and.the.Pirates.2015.1080p.AMZN.WEBRip.DDP5.1.x264-NTG 9.36GB

[复制链接]
蓝光币
1022
发表于 2020-2-2 11:35:03 | 显示全部楼层 |阅读模式
镭射!皮特的海盗团 Pete.Winning.and.the.Pirates.2015.1080p.AMZN.WEBRip.DDP5.1.x264-NTG 9.36GB-1.png

译  名 镭射!皮特的海盗团 / Pete Winning and the Pirates
片  名 Pete Winning and the Pirates: The Motion Picture
年  代 2015
产  地 加拿大
类  别 行动 / 科幻 / 冒险
语  言 英语
上映日期 2015-04-14(美国)
IMDb评分  5.5/10 from 68 users
IMDb链接  https://www.imdb.com/title/tt4672272
豆瓣评分 0/10 from 0 users
豆瓣链接 https://movie.douban.com/subject/27140976/
片  长 93分钟
导  演 Mike Donis / Jason Leaver
编  剧 James Christopher
主  演 Mike Donis
       Saffron Cassaday
       Sandra DaCosta
       Shawn Devlin
       Chelsey Marie
       Ash Catherwood
       Jamie Elizabeth Sampson
       Robert Nolan
       Brian Scott Carleton
       Terry He
       Dani Barker
       Bobby Bonner
       Matthew Carvery
       Alex Chung
       John Cianciolo


标  签 渣滓 | 加拿大

简  介  

  左手激光镭射枪,右手耍宝小招数,海盗皮特率领一众使人捧腹的船员爆笑动身。但是此行实则使命严重:2035年全球变暖致使地球一片汪洋,拯救天下的唯一能够落在寻觅一张能开启新天下的舆图。只要克服一心想扑灭舆图的邪恶女王,才能逃离辐射区。那末,海盗团中谁才是皮特最能信赖的人?亦侠亦盗的皮特能否终极找到拯救天下的钥匙?这群活在未来的海盗们邀您一路加入他们这场惊心动魄又笑点连连的探险之旅。
  1. Video
  2. ID                                       : 1
  3. Format                                   : AVC
  4. Format/Info                              : Advanced Video Codec
  5. Format profile                           : [email protected]
  6. Format settings                          : CABAC / 4 Ref Frames
  7. Format settings, CABAC                   : Yes
  8. Format settings, Reference frames        : 4 frames
  9. Codec ID                                 : V_MPEG4/ISO/AVC
  10. Duration                                 : 1 h 33 min
  11. Bit rate mode                            : Variable
  12. Bit rate                                 : 13.7 Mb/s
  13. Maximum bit rate                         : 15.0 Mb/s
  14. Width                                    : 1 920 pixels
  15. Height                                   : 1 080 pixels
  16. Display aspect ratio                     : 16:9
  17. Frame rate mode                          : Constant
  18. Frame rate                               : 23.976 (24000/1001) FPS
  19. Color space                              : YUV
  20. Chroma subsampling                       : 4:2:0
  21. Bit depth                                : 8 bits
  22. Scan type                                : Progressive
  23. Bits/(Pixel*Frame)                       : 0.275
  24. Stream size                              : 8.94 GiB (96%)
  25. Default                                  : Yes
  26. Forced                                   : No
  27. Color range                              : Limited
  28. Color primaries                          : BT.709
  29. Transfer characteristics                 : BT.709
  30. Matrix coefficients                      : BT.709

  31. Audio
  32. ID                                       : 2
  33. Format                                   : E-AC-3
  34. Format/Info                              : Enhanced AC-3
  35. Commercial name                          : Dolby Digital Plus
  36. Codec ID                                 : A_EAC3
  37. Duration                                 : 1 h 33 min
  38. Bit rate mode                            : Constant
  39. Bit rate                                 : 640 kb/s
  40. Channel(s)                               : 6 channels
  41. Channel layout                           : L R C LFE Ls Rs
  42. Sampling rate                            : 48.0 kHz
  43. Frame rate                               : 31.250 FPS (1536 SPF)
  44. Compression mode                         : Lossy
  45. Stream size                              : 429 MiB (4%)
  46. Language                                 : English
  47. Service kind                             : Complete Main
  48. Default                                  : Yes
  49. Forced                                   : No

  50. Text
  51. ID                                       : 3
  52. Format                                   : UTF-8
  53. Codec ID                                 : S_TEXT/UTF8
  54. Codec ID/Info                            : UTF-8 Plain Text
  55. Duration                                 : 1 h 29 min
  56. Bit rate                                 : 48 b/s
  57. Count of elements                        : 1299
  58. Stream size                              : 31.8 KiB (0%)
  59. Title                                    : SDH
  60. Language                                 : English
  61. Default                                  : No
  62. Forced                                   : No
复制代码

镭射!皮特的海盗团 Pete.Winning.and.the.Pirates.2015.1080p.AMZN.WEBRip.DDP5.1.x264-NTG 9.36GB-2.png 镭射!皮特的海盗团 Pete.Winning.and.the.Pirates.2015.1080p.AMZN.WEBRip.DDP5.1.x264-NTG 9.36GB-3.png 镭射!皮特的海盗团 Pete.Winning.and.the.Pirates.2015.1080p.AMZN.WEBRip.DDP5.1.x264-NTG 9.36GB-4.png






回复

使用道具 举报

懒得打字嘛,点击右侧快捷回复 【右侧内容,后台自定义】
您需要登录后才可以回帖 登录 | 立即加入

本版积分规则

Archiver|小黑屋| 蓝光电影网 |网站地图

Copyright © 2021 Comsenz Inc. Powered by 蓝光电影网

蓝光电影网

本站内容由用户自主分享和转载自互联网,转载目的在于传递更多信息,并不代表本网赞同其观点和对其真实性负责。

如有侵权、违反国家法律政策行为,请联系我们,我们会第一时间及时清除和处理!

举报反馈邮箱:[email protected]

快速回复 返回顶部 返回列表