找回密码

蓝光电影网

查看: 287|回复: 0

[纪录] 二甲基色胺:精神分子/DMT:精神分子 Dmt.The.Spirit.Molecule.2010.1080p.WEBRip.x264-RARBG 1.43GB

[复制链接]
蓝光币
886
发表于 2020-2-2 11:39:30 | 显示全部楼层 |阅读模式
二甲基色胺:精神份子/DMT:精神份子 Dmt.The.Spirit.Molecule.2010.1080p.WEBRip.x264-RARBG 1.43GB-1.png

译  名 二甲基色胺:精神份子 / DMT:精神份子
片  名 DMT: The Spirit Molecule
年  代 2010
产  地 美国
类  别 记载片
语  言 英语
上映日期 2014-09-01(新西兰)
IMDb评分  7.2/10 from 4296 users
IMDb链接  https://www.imdb.com/title/tt1340425
豆瓣评分 8.0/10 from 160 users
豆瓣链接 https://movie.douban.com/subject/5177482/
片  长 75分钟
导  演 Mitch Schultz
编  剧 Mitch Schultz / Rick Strassman
主  演 Joe Rogan
       Ralph Abraham
       Joel Bakst


标  签 记载片 | DMT | 灵魂物资 | 科学 | Psychedelic | Documentary | 2014 | 美国

简  介  

  THE SPIRIT MOLECULE weaves an account of Dr. Rick Strassman's groundbreaking DMT research through a multifaceted approach to this intriguing hallucinogen found in the human brain and hundreds of plants, including the sacred Amazonian brew, ayahuasca. Utilizing interviews with a variety of experts to explain their thoughts and experiences with DMT, and ayahuasca, within their respective fields, and discussions with Strassman’s research volunteers, brings to life the awesome effects of this compound, and introduces us to far-reaching theories regarding its role in human consciousness.
  Several themes explored include possible roles for endogenous DMT, its theoretical role in near-death and birth experiences, alien-abduction experiences, and spiritual states, both within Eastern concepts of enlightenment and Western ideas regarding prophecy, and the uncanny similarities in Biblical prophetic texts describing DMT-like experiences. Our expert contributors offer a comprehensive collection of information, opinions, and speculation about indigenous use of DMT, the history and future of psychedelics within the research community, and within the larger social matrix, and current DMT research. All this, to help us understand the nature of the DMT experience, and its role in human culture and evolution.
  The subtle stimulating combination of science, spirituality, anthropology, sociology, and philosophy within the film’s approach sheds light on an array of ideas that could considerably alter the way humans understand the universe and their relationship to it.
  1. Video
  2. ID                                       : 1
  3. Format                                   : AVC
  4. Format/Info                              : Advanced Video Codec
  5. Format profile                           : [email protected]
  6. Format settings                          : CABAC / 4 Ref Frames
  7. Format settings, CABAC                   : Yes
  8. Format settings, Reference frames        : 4 frames
  9. Codec ID                                 : avc1
  10. Codec ID/Info                            : Advanced Video Coding
  11. Duration                                 : 1 h 14 min
  12. Bit rate                                 : 2 500 kb/s
  13. Width                                    : 1 920 pixels
  14. Height                                   : 1 080 pixels
  15. Display aspect ratio                     : 16:9
  16. Frame rate mode                          : Constant
  17. Frame rate                               : 29.970 (29970/1000) FPS
  18. Color space                              : YUV
  19. Chroma subsampling                       : 4:2:0
  20. Bit depth                                : 8 bits
  21. Scan type                                : Progressive
  22. Bits/(Pixel*Frame)                       : 0.040
  23. Stream size                              : 1.30 GiB (91%)
  24. Writing library                          : x264 core 152 r2851M ba24899
  25. Encoding settings                        : cabac=1 / ref=4 / deblock=1:-1:-1 / analyse=0x3:0x113 / me=umh / subme=9 / psy=1 / psy_rd=1.00:0.15 / mixed_ref=1 / me_range=24 / chroma_me=1 / trellis=2 / 8x8dct=1 / cqm=0 / deadzone=21,11 / fast_pskip=1 / chroma_qp_offset=-3 / threads=16 / lookahead_threads=4 / sliced_threads=0 / nr=0 / decimate=1 / interlaced=0 / bluray_compat=0 / constrained_intra=0 / bframes=3 / b_pyramid=2 / b_adapt=2 / b_bias=0 / direct=3 / weightb=1 / open_gop=0 / weightp=2 / keyint=250 / keyint_min=25 / scenecut=40 / intra_refresh=0 / rc_lookahead=50 / rc=2pass / mbtree=1 / bitrate=2500 / ratetol=1.0 / qcomp=0.60 / qpmin=0 / qpmax=69 / qpstep=4 / cplxblur=20.0 / qblur=0.5 / vbv_maxrate=31250 / vbv_bufsize=31250 / nal_hrd=none / filler=0 / ip_ratio=1.40 / aq=3:1.00
  26. Encoded date                             : UTC 2020-02-01 14:33:01
  27. Tagged date                              : UTC 2020-02-01 14:33:01
  28. Codec configuration box                  : avcC

  29. Audio
  30. ID                                       : 2
  31. Format                                   : AAC LC
  32. Format/Info                              : Advanced Audio Codec Low Complexity
  33. Codec ID                                 : mp4a-40-2
  34. Duration                                 : 1 h 14 min
  35. Duration_LastFrame                       : -11 ms
  36. Bit rate mode                            : Constant
  37. Bit rate                                 : 224 kb/s
  38. Channel(s)                               : 6 channels
  39. Channel layout                           : C L R Ls Rs LFE
  40. Sampling rate                            : 48.0 kHz
  41. Frame rate                               : 46.875 FPS (1024 SPF)
  42. Compression mode                         : Lossy
  43. Stream size                              : 120 MiB (8%)
  44. Language                                 : English
  45. Default                                  : Yes
  46. Alternate group                          : 1
  47. Encoded date                             : UTC 2020-02-01 14:33:01
  48. Tagged date                              : UTC 2020-02-01 14:33:01
复制代码

二甲基色胺:精神份子/DMT:精神份子 Dmt.The.Spirit.Molecule.2010.1080p.WEBRip.x264-RARBG 1.43GB-2.png 二甲基色胺:精神份子/DMT:精神份子 Dmt.The.Spirit.Molecule.2010.1080p.WEBRip.x264-RARBG 1.43GB-3.png 二甲基色胺:精神份子/DMT:精神份子 Dmt.The.Spirit.Molecule.2010.1080p.WEBRip.x264-RARBG 1.43GB-4.png







回复

使用道具 举报

懒得打字嘛,点击右侧快捷回复 【右侧内容,后台自定义】
您需要登录后才可以回帖 登录 | 立即加入

本版积分规则

Archiver|小黑屋| 蓝光电影网 |网站地图

Copyright © 2021 Comsenz Inc. Powered by 蓝光电影网

蓝光电影网

本站内容由用户自主分享和转载自互联网,转载目的在于传递更多信息,并不代表本网赞同其观点和对其真实性负责。

如有侵权、违反国家法律政策行为,请联系我们,我们会第一时间及时清除和处理!

举报反馈邮箱:[email protected]

快速回复 返回顶部 返回列表