找回密码

蓝光电影网

查看: 183|回复: 0

[剧情] 开车载着道格的人 Whos.Driving.Doug.2016.1080p.WEB-DL.DD5.1.H264-FGT 3.23GB

[复制链接]
蓝光币
1020
发表于 2020-2-2 11:40:32 | 显示全部楼层 |阅读模式
开车载着道格的人 Whos.Driving.Doug.2016.1080p.WEB-DL.DD5.1.H264-FGT 3.23GB-1.png

译  名 开车载着道格的人
片  名 Who's Driving Doug
年  代 2016
产  地 美国
类  别 剧情
语  言 英语
上映日期 2016-02-26
IMDb评分  6.0/10 from 403 users
IMDb链接  https://www.imdb.com/title/tt3733606
豆瓣评分 0/10 from 0 users
豆瓣链接 https://movie.douban.com/subject/25897930/
片  长 98分钟
导  演 David Conley
编  剧 Michael Carnick
主  演 RJ·米特 RJ Mitte
       瑞·威廉·强森 Ray William Johnson
       帕洛玛·克维亚特科夫斯基 Paloma Kwiatkowski
       Quinn Friedman
       珊提·洛瑞 Shanti Lowry
       艾丽克斯·伊丽莎白·吉特 Alix Elizabeth Gitter
       Jeff Gum
       格蕾塔·荣格 Greta Jung


标  签 剧情 | 美国 | 2016 | 米特 | 单独生活

简  介  

  A sheltered, intelligent college student DOUG (RJ Mitte of "Breaking Bad") changes his life forever when he hires an underachieving driver SCOTT (Ray William Johnson of "Equals Three"). In order to escape his oppressively loving MOTHER (Daphne Zuniga), Doug agrees to go on a spontaneous road trip with Scott and his college crush STEPHANIE (Paloma Kwiatkowski of "Bates Motel"). At the height of the journey, a tragic series of events tests their bond and opens the road to self discovery. Drugs, gambling, and romance await the three friends in this honest American coming of age drama.
  1. Video
  2. ID                                       : 1
  3. Format                                   : AVC
  4. Format/Info                              : Advanced Video Codec
  5. Format profile                           : [email protected]
  6. Format settings                          : CABAC / 5 Ref Frames
  7. Format settings, CABAC                   : Yes
  8. Format settings, Reference frames        : 5 frames
  9. Codec ID                                 : V_MPEG4/ISO/AVC
  10. Duration                                 : 1 h 35 min
  11. Bit rate                                 : 4 354 kb/s
  12. Width                                    : 1 920 pixels
  13. Height                                   : 804 pixels
  14. Display aspect ratio                     : 2.40:1
  15. Frame rate mode                          : Constant
  16. Frame rate                               : 23.976 FPS
  17. Color space                              : YUV
  18. Chroma subsampling                       : 4:2:0
  19. Bit depth                                : 8 bits
  20. Scan type                                : Progressive
  21. Bits/(Pixel*Frame)                       : 0.118
  22. Stream size                              : 2.91 GiB (90%)
  23. Title                                    : Whos.Driving.Doug.2016.1080p.WEB-DL.DD5.1.H264-FGT
  24. Language                                 : English
  25. Default                                  : Yes
  26. Forced                                   : No
  27. Color range                              : Limited
  28. Color primaries                          : BT.709
  29. Transfer characteristics                 : BT.709
  30. Matrix coefficients                      : BT.709

  31. Audio
  32. ID                                       : 2
  33. Format                                   : AC-3
  34. Format/Info                              : Audio Coding 3
  35. Commercial name                          : Dolby Digital
  36. Codec ID                                 : A_AC3
  37. Duration                                 : 1 h 35 min
  38. Bit rate mode                            : Constant
  39. Bit rate                                 : 384 kb/s
  40. Channel(s)                               : 6 channels
  41. Channel layout                           : L R C LFE Ls Rs
  42. Sampling rate                            : 48.0 kHz
  43. Frame rate                               : 31.250 FPS (1536 SPF)
  44. Compression mode                         : Lossy
  45. Stream size                              : 263 MiB (8%)
  46. Title                                    : Whos.Driving.Doug.2016.1080p.WEB-DL.DD5.1.H264-FGT
  47. Language                                 : English
  48. Service kind                             : Complete Main
  49. Default                                  : Yes
  50. Forced                                   : No

  51. Text
  52. ID                                       : 3
  53. Format                                   : UTF-8
  54. Codec ID                                 : S_TEXT/UTF8
  55. Codec ID/Info                            : UTF-8 Plain Text
  56. Language                                 : English
  57. Default                                  : Yes
  58. Forced                                   : No

  59. Menu
  60. 00:00:00.000                             : en:1
  61. 00:10:51.000                             : en:2
  62. 00:22:34.000                             : en:3
  63. 00:31:14.000                             : en:4
  64. 00:42:26.000                             : en:5
  65. 00:50:57.000                             : en:6
  66. 01:03:07.000                             : en:7
  67. 01:13:20.000                             : en:8
  68. 01:22:09.000                             : en:9
  69. 01:31:55.000                             : en:10
复制代码

开车载着道格的人 Whos.Driving.Doug.2016.1080p.WEB-DL.DD5.1.H264-FGT 3.23GB-2.png 开车载着道格的人 Whos.Driving.Doug.2016.1080p.WEB-DL.DD5.1.H264-FGT 3.23GB-3.png 开车载着道格的人 Whos.Driving.Doug.2016.1080p.WEB-DL.DD5.1.H264-FGT 3.23GB-4.png 开车载着道格的人 Whos.Driving.Doug.2016.1080p.WEB-DL.DD5.1.H264-FGT 3.23GB-5.png 开车载着道格的人 Whos.Driving.Doug.2016.1080p.WEB-DL.DD5.1.H264-FGT 3.23GB-6.png 开车载着道格的人 Whos.Driving.Doug.2016.1080p.WEB-DL.DD5.1.H264-FGT 3.23GB-7.png






回复

使用道具 举报

懒得打字嘛,点击右侧快捷回复 【右侧内容,后台自定义】
您需要登录后才可以回帖 登录 | 立即加入

本版积分规则

Archiver|小黑屋| 蓝光电影网 |网站地图

Copyright © 2021 Comsenz Inc. Powered by 蓝光电影网

蓝光电影网

本站内容由用户自主分享和转载自互联网,转载目的在于传递更多信息,并不代表本网赞同其观点和对其真实性负责。

如有侵权、违反国家法律政策行为,请联系我们,我们会第一时间及时清除和处理!

举报反馈邮箱:[email protected]

快速回复 返回顶部 返回列表