找回密码

蓝光电影网

查看: 134|回复: 0

[剧情] 候机室情缘 Something.Real.and.Good.2013.1080p.WEB-DL.DD5.1.H264-FGT 2.52GB

[复制链接]
蓝光币
886
发表于 2020-2-2 11:44:14 | 显示全部楼层 |阅读模式
候机室情缘 Something.Real.and.Good.2013.1080p.WEB-DL.DD5.1.H264-FGT 2.52GB-1.png

译  名 候机室情缘
片  名 Something Real and Good
年  代 2013
产  地 美国
类  别 剧情
语  言 英语
上映日期 2013-03-05(美国)
IMDb评分  6.0/10 from 716 users
IMDb链接  https://www.imdb.com/title/tt1800379
豆瓣评分 6.0/10 from 323 users
豆瓣链接 https://movie.douban.com/subject/21371613/
片  长 82分钟
导  演 Luke Rivett
编  剧 Erin Carroll
主  演 Alex Hannant
       Matt Jones


标  签 恋爱 | 美国 | 2013 | 美国电影 | 剧情 | 笑剧 | 电影 | 愛情

简  介  

  一对年轻的男女,人在机场萍水重逢。在期待航班耽搁因飞机改道而熟悉到,偶然恋爱的到来是需要弯路来建立毗连。
  1. Video
  2. ID                                       : 1
  3. Format                                   : AVC
  4. Format/Info                              : Advanced Video Codec
  5. Format profile                           : [email protected]
  6. Format settings                          : CABAC / 5 Ref Frames
  7. Format settings, CABAC                   : Yes
  8. Format settings, Reference frames        : 5 frames
  9. Codec ID                                 : V_MPEG4/ISO/AVC
  10. Duration                                 : 1 h 21 min
  11. Bit rate                                 : 4 057 kb/s
  12. Width                                    : 1 920 pixels
  13. Height                                   : 816 pixels
  14. Display aspect ratio                     : 2.35:1
  15. Frame rate mode                          : Constant
  16. Frame rate                               : 23.976 (23976/1000) FPS
  17. Color space                              : YUV
  18. Chroma subsampling                       : 4:2:0
  19. Bit depth                                : 8 bits
  20. Scan type                                : Progressive
  21. Bits/(Pixel*Frame)                       : 0.108
  22. Stream size                              : 2.30 GiB (91%)
  23. Title                                    : Something.Real.and.Good.2013.1080p.WEB-DL.DD5.1.H.264-FGT
  24. Language                                 : English
  25. Default                                  : Yes
  26. Forced                                   : No
  27. Color range                              : Limited
  28. Color primaries                          : BT.709
  29. Transfer characteristics                 : BT.709
  30. Matrix coefficients                      : BT.709

  31. Audio
  32. ID                                       : 2
  33. Format                                   : AC-3
  34. Format/Info                              : Audio Coding 3
  35. Commercial name                          : Dolby Digital
  36. Codec ID                                 : A_AC3
  37. Duration                                 : 1 h 21 min
  38. Bit rate mode                            : Constant
  39. Bit rate                                 : 384 kb/s
  40. Channel(s)                               : 6 channels
  41. Channel layout                           : L R C LFE Ls Rs
  42. Sampling rate                            : 48.0 kHz
  43. Frame rate                               : 31.250 FPS (1536 SPF)
  44. Compression mode                         : Lossy
  45. Stream size                              : 223 MiB (9%)
  46. Title                                    : Something.Real.and.Good.2013.1080p.WEB-DL.DD5.1.H.264-FGT
  47. Language                                 : English
  48. Service kind                             : Complete Main
  49. Default                                  : Yes
  50. Forced                                   : No

  51. Text
  52. ID                                       : 3
  53. Format                                   : UTF-8
  54. Codec ID                                 : S_TEXT/UTF8
  55. Codec ID/Info                            : UTF-8 Plain Text
  56. Duration                                 : 1 h 21 min
  57. Bit rate                                 : 105 b/s
  58. Count of elements                        : 1595
  59. Stream size                              : 63.0 KiB (0%)
  60. Language                                 : English
  61. Default                                  : No
  62. Forced                                   : No

  63. Menu
  64. 00:00:00.000                             : en:Chapter 1
  65. 00:09:45.000                             : en:Chapter 2
  66. 00:20:04.000                             : en:Chapter 3
  67. 00:31:21.000                             : en:Chapter 4
  68. 00:41:31.000                             : en:Chapter 5
  69. 00:51:10.000                             : en:Chapter 6
  70. 01:03:43.000                             : en:Chapter 7
  71. 01:11:30.000                             : en:Chapter 8
  72. 01:18:30.000                             : en:End Credits
复制代码

候机室情缘 Something.Real.and.Good.2013.1080p.WEB-DL.DD5.1.H264-FGT 2.52GB-2.png 候机室情缘 Something.Real.and.Good.2013.1080p.WEB-DL.DD5.1.H264-FGT 2.52GB-3.png 候机室情缘 Something.Real.and.Good.2013.1080p.WEB-DL.DD5.1.H264-FGT 2.52GB-4.png






回复

使用道具 举报

懒得打字嘛,点击右侧快捷回复 【右侧内容,后台自定义】
您需要登录后才可以回帖 登录 | 立即加入

本版积分规则

Archiver|小黑屋| 蓝光电影网 |网站地图

Copyright © 2021 Comsenz Inc. Powered by 蓝光电影网

蓝光电影网

本站内容由用户自主分享和转载自互联网,转载目的在于传递更多信息,并不代表本网赞同其观点和对其真实性负责。

如有侵权、违反国家法律政策行为,请联系我们,我们会第一时间及时清除和处理!

举报反馈邮箱:[email protected]

快速回复 返回顶部 返回列表