找回密码

蓝光电影网

查看: 165|回复: 0

[喜剧] 换档 Shifting.Gears.2018.1080p.WEB-DL.DD5.1.H264-FGT 3.93GB

[复制链接]
蓝光币
886
发表于 2020-2-2 11:45:06 | 显示全部楼层 |阅读模式
换档 Shifting.Gears.2018.1080p.WEB-DL.DD5.1.H264-FGT 3.93GB-1.png

译  名 换档
片  名 Shifting Gears
年  代 2018
产  地 美国
类  别 笑剧 / 行动 / 家庭
语  言 英语
上映日期 2018-03-23(美国)
IMDb评分  5.0/10 from 149 users
IMDb链接  https://www.imdb.com/title/tt4264610
豆瓣评分 4.7/10 from 76 users
豆瓣链接 https://movie.douban.com/subject/30247426/
片  长 102分钟
导  演 Jason Winn
编  剧 R.基斯·哈里斯 R. Keith Harris
主  演 C·托马斯·豪威尔 C. Thomas Howell
       布鲁克·朗顿 Brooke Langton
       约翰·拉岑贝格 John Ratzenberger
       迈克·康纳·盖尼 M.C. Gainey
       M·埃梅特·沃尔什 M. Emmet Walsh
       亚当·希克斯 Adam Hicks
       R.基斯·哈里斯 R. Keith Harris
       Cole Bernstein
       迈克尔·阿伯特 Michael Abbott Jr.
       Robert Crayton
       Tate Clemons
       Sterling Hurst


标  签 笑剧 | 美国 | 人生 | 温情 | 2018 | 赛车 | 行动 | 美国电影

简  介  

  An overworked dad, missing out on his kids growing, takes an opportunity to start a "family business" thinking it will draw his family closer together - That is just mistake number one.
  1. Video
  2. ID                                       : 1
  3. Format                                   : AVC
  4. Format/Info                              : Advanced Video Codec
  5. Format profile                           : [email protected]
  6. Format settings                          : CABAC / 4 Ref Frames
  7. Format settings, CABAC                   : Yes
  8. Format settings, Reference frames        : 4 frames
  9. Codec ID                                 : V_MPEG4/ISO/AVC
  10. Duration                                 : 1 h 41 min
  11. Bit rate                                 : 5 154 kb/s
  12. Width                                    : 1 920 pixels
  13. Height                                   : 1 080 pixels
  14. Display aspect ratio                     : 16:9
  15. Frame rate mode                          : Constant
  16. Frame rate                               : 23.976 (23976/1000) FPS
  17. Color space                              : YUV
  18. Chroma subsampling                       : 4:2:0
  19. Bit depth                                : 8 bits
  20. Scan type                                : Progressive
  21. Bits/(Pixel*Frame)                       : 0.104
  22. Stream size                              : 3.66 GiB (93%)
  23. Title                                    : Shifting.Gears.2018.1080p.WEB-DL.DD5.1.H.264-FGT
  24. Language                                 : English
  25. Default                                  : Yes
  26. Forced                                   : No
  27. Color range                              : Limited
  28. Color primaries                          : BT.709
  29. Transfer characteristics                 : BT.709
  30. Matrix coefficients                      : BT.709

  31. Audio
  32. ID                                       : 2
  33. Format                                   : AC-3
  34. Format/Info                              : Audio Coding 3
  35. Commercial name                          : Dolby Digital
  36. Codec ID                                 : A_AC3
  37. Duration                                 : 1 h 41 min
  38. Bit rate mode                            : Constant
  39. Bit rate                                 : 384 kb/s
  40. Channel(s)                               : 6 channels
  41. Channel layout                           : L R C LFE Ls Rs
  42. Sampling rate                            : 48.0 kHz
  43. Frame rate                               : 31.250 FPS (1536 SPF)
  44. Compression mode                         : Lossy
  45. Stream size                              : 279 MiB (7%)
  46. Title                                    : Shifting.Gears.2018.1080p.WEB-DL.DD5.1.H.264-FGT
  47. Language                                 : English
  48. Service kind                             : Complete Main
  49. Default                                  : Yes
  50. Forced                                   : No

  51. Text
  52. ID                                       : 3
  53. Format                                   : UTF-8
  54. Codec ID                                 : S_TEXT/UTF8
  55. Codec ID/Info                            : UTF-8 Plain Text
  56. Duration                                 : 1 h 41 min
  57. Bit rate                                 : 67 b/s
  58. Count of elements                        : 1657
  59. Stream size                              : 50.2 KiB (0%)
  60. Language                                 : English
  61. Default                                  : Yes
  62. Forced                                   : No

  63. Menu
  64. 00:00:00.000                             : en:1
  65. 00:12:38.008                             : en:2
  66. 00:23:03.591                             : en:3
  67. 00:33:28.048                             : en:4
  68. 00:43:47.667                             : en:5
  69. 00:56:10.159                             : en:6
  70. 01:08:57.384                             : en:7
  71. 01:18:11.396                             : en:8
  72. 01:30:20.792                             : en:9
  73. 01:38:32.617                             : en:10
复制代码

换档 Shifting.Gears.2018.1080p.WEB-DL.DD5.1.H264-FGT 3.93GB-2.png 换档 Shifting.Gears.2018.1080p.WEB-DL.DD5.1.H264-FGT 3.93GB-3.png 换档 Shifting.Gears.2018.1080p.WEB-DL.DD5.1.H264-FGT 3.93GB-4.png






回复

使用道具 举报

懒得打字嘛,点击右侧快捷回复 【右侧内容,后台自定义】
您需要登录后才可以回帖 登录 | 立即加入

本版积分规则

Archiver|小黑屋| 蓝光电影网 |网站地图

Copyright © 2021 Comsenz Inc. Powered by 蓝光电影网

蓝光电影网

本站内容由用户自主分享和转载自互联网,转载目的在于传递更多信息,并不代表本网赞同其观点和对其真实性负责。

如有侵权、违反国家法律政策行为,请联系我们,我们会第一时间及时清除和处理!

举报反馈邮箱:[email protected]

快速回复 返回顶部 返回列表