找回密码

蓝光电影网

查看: 151|回复: 0

[剧情] 一千根绳 One.Thousand.Ropes.2016.1080p.WEB-DL.DD5.1.H264-PfXCPI 3.83GB

[复制链接]
蓝光币
886
发表于 2020-2-2 11:47:06 | 显示全部楼层 |阅读模式
一千根绳 One.Thousand.Ropes.2016.1080p.WEB-DL.DD5.1.H264-PfXCPI 3.83GB-1.png

译  名 一千根绳
片  名 One Thousand Ropes
年  代 2016
产  地 新西兰
类  别 剧情
语  言 英语
上映日期 2017-02-10(柏林电影节)
IMDb评分  6.4/10 from 105 users
IMDb链接  https://www.imdb.com/title/tt5371832
豆瓣评分 0/10 from 0 users
豆瓣链接 https://movie.douban.com/subject/26964424/
片  长 98分钟
导  演 图西·塔马西西 Tusi Tamasese
编  剧 图西·塔马西西 Tusi Tamasese
主  演 弗兰基·亚当斯 Frankie Adams
       比尤拉·寇尔 Beulah Koale
       纳撒尼尔·利斯 Nathaniel Lees
       Helen Pearse Otene
       Ene Petaia
       Uelese Petaia


标  签 新西兰 | 剧情 | 柏林电影节 | 2017 | 人性 | 澳洲 | 优酷 | 上海电影节

简  介  

  梅耶在一家面包店工作,同时操纵专业时候来接生和抚慰孕妇。自多年前从萨摩亚移民到现在住的地方,他一向过着简单而安静的生活,可是他的家人已经不在身旁了。本来梅耶已经家暴使得妻子、女儿都离家而去。直到女儿意外怀孕,又被男朋友暴打以后逃到自己这里,他才发现自己的罪还没有赎完。他之所以为孕妇接生,是由于他既有对新生命的期待,也有对之前暴力生活的赎罪。梅耶一向延续着传统的保胎方式,拒绝现代的医院和接生技术。《一千根绳》是一部深入反应家庭关系、救赎与新生的电影。
  1. Video
  2. ID                                       : 1
  3. Format                                   : AVC
  4. Format/Info                              : Advanced Video Codec
  5. Format profile                           : [email protected]
  6. Format settings                          : CABAC / 4 Ref Frames
  7. Format settings, CABAC                   : Yes
  8. Format settings, Reference frames        : 4 frames
  9. Codec ID                                 : V_MPEG4/ISO/AVC
  10. Duration                                 : 1 h 38 min
  11. Bit rate                                 : 5 199 kb/s
  12. Width                                    : 1 920 pixels
  13. Height                                   : 1 080 pixels
  14. Display aspect ratio                     : 16:9
  15. Frame rate mode                          : Constant
  16. Frame rate                               : 23.976 FPS
  17. Color space                              : YUV
  18. Chroma subsampling                       : 4:2:0
  19. Bit depth                                : 8 bits
  20. Scan type                                : Progressive
  21. Bits/(Pixel*Frame)                       : 0.105
  22. Stream size                              : 3.57 GiB (93%)
  23. Language                                 : English
  24. Default                                  : Yes
  25. Forced                                   : No
  26. Color range                              : Limited
  27. Color primaries                          : BT.709
  28. Transfer characteristics                 : BT.709
  29. Matrix coefficients                      : BT.709

  30. Audio
  31. ID                                       : 2
  32. Format                                   : AC-3
  33. Format/Info                              : Audio Coding 3
  34. Commercial name                          : Dolby Digital
  35. Codec ID                                 : A_AC3
  36. Duration                                 : 1 h 38 min
  37. Bit rate mode                            : Constant
  38. Bit rate                                 : 384 kb/s
  39. Channel(s)                               : 6 channels
  40. Channel layout                           : L R C LFE Ls Rs
  41. Sampling rate                            : 48.0 kHz
  42. Frame rate                               : 31.250 FPS (1536 SPF)
  43. Compression mode                         : Lossy
  44. Stream size                              : 270 MiB (7%)
  45. Language                                 : English
  46. Service kind                             : Complete Main
  47. Default                                  : Yes
  48. Forced                                   : No

  49. Text
  50. ID                                       : 3
  51. Format                                   : UTF-8
  52. Codec ID                                 : S_TEXT/UTF8
  53. Codec ID/Info                            : UTF-8 Plain Text
  54. Duration                                 : 1 h 31 min
  55. Bit rate                                 : 9 b/s
  56. Count of elements                        : 225
  57. Stream size                              : 6.13 KiB (0%)
  58. Language                                 : English
  59. Default                                  : Yes
  60. Forced                                   : No

  61. Menu
  62. 00:00:00.000                             : en:1
  63. 00:06:15.583                             : en:2
  64. 00:11:29.270                             : en:3
  65. 00:18:04.915                             : en:4
  66. 00:23:42.127                             : en:5
  67. 00:31:54.327                             : en:6
  68. 00:35:47.475                             : en:7
  69. 00:42:41.471                             : en:8
  70. 00:49:29.920                             : en:9
  71. 00:53:32.119                             : en:10
  72. 00:59:35.023                             : en:11
  73. 01:05:32.546                             : en:12
  74. 01:12:11.944                             : en:13
  75. 01:20:42.663                             : en:14
  76. 01:25:48.593                             : en:15
  77. 01:31:35.273                             : en:16
复制代码

一千根绳 One.Thousand.Ropes.2016.1080p.WEB-DL.DD5.1.H264-PfXCPI 3.83GB-2.png 一千根绳 One.Thousand.Ropes.2016.1080p.WEB-DL.DD5.1.H264-PfXCPI 3.83GB-3.png 一千根绳 One.Thousand.Ropes.2016.1080p.WEB-DL.DD5.1.H264-PfXCPI 3.83GB-1.png






回复

使用道具 举报

懒得打字嘛,点击右侧快捷回复 【右侧内容,后台自定义】
您需要登录后才可以回帖 登录 | 立即加入

本版积分规则

Archiver|小黑屋| 蓝光电影网 |网站地图

Copyright © 2021 Comsenz Inc. Powered by 蓝光电影网

蓝光电影网

本站内容由用户自主分享和转载自互联网,转载目的在于传递更多信息,并不代表本网赞同其观点和对其真实性负责。

如有侵权、违反国家法律政策行为,请联系我们,我们会第一时间及时清除和处理!

举报反馈邮箱:[email protected]

快速回复 返回顶部 返回列表