找回密码

蓝光电影网

查看: 189|回复: 0

[喜剧] 无聊现代生活/现代生活是垃圾 Modern.Life.Is.Rubbish.2017.1080p.WEB-DL.DD5.1.H264-FGT 4.08GB

[复制链接]
蓝光币
886
发表于 2020-2-2 11:48:44 | 显示全部楼层 |阅读模式
无聊现代生活/现代生活是渣滓 Modern.Life.Is.Rubbish.2017.1080p.WEB-DL.DD5.1.H264-FGT 4.08GB-1.png

译  名 无聊现代生活 / 现代生活是渣滓 / 那些年一路听的歌
片  名 Modern Life Is Rubbish
年  代 2017
产  地 英国
类  别 笑剧 / 恋爱 / 音乐
语  言 英语
上映日期 2017-06-22(爱丁堡电影节) / 2018-05-04(英国)
IMDb评分  5.9/10 from 744 users
IMDb链接  https://www.imdb.com/title/tt2385752
豆瓣评分 6.4/10 from 433 users
豆瓣链接 https://movie.douban.com/subject/26392635/
片  长 105分钟
导  演 丹尼尔·杰罗姆·吉尔 Daniel Jerome Gill
编  剧 菲利普·加索恩 Philip Gawthorne
主  演 弗雷娅·梅弗 Freya Mavor
       乔什·怀特豪斯 Josh Whitehouse
       汤姆·莱利 Tom Riley
       杰西·卡芙 Jessie Cave
       马特·米尔尼 Matt Milne
       伊恩·哈特 Ian Hart
       索查·库萨克 Sorcha Cusack
       斯蒂文·麦金托什 Steven Mackintosh
       黛西·贝文 Daisy Bevan
       塔露拉·哈登 Tallulah Haddon
       卡罗琳·博尔顿 Caroline Boulton
       维尔·梅里克 Will Merrick
       丹尼尔·厄根 Daniel Eghan
       贾森·马修森 Jason Matthewson
       基拉·贝尔 Kiera Bell
       马尔科姆·莫德乐 Malcolm Modele
       阿提拉·G·凯雷克斯 Attila G. Kerekes


标  签 音乐 | 英国 | 恋爱 | 剧情 | 2018 | 温情 | 帅哥 | 笑剧

简  介  

  Liam和Natalie性情悬殊却深深被相互吸引,电光火石的堕入爱中。而十年曩昔,他们的恋爱之路似乎走到了绝顶,两小我终究做出了分手的决议。在分炊的时辰,他们起头整理整理两人珍贵的音乐收藏。每一首歌里都藏着他们恋爱的片断,也渐渐叫醒了他们爱的记忆。
  1. Video
  2. ID                                       : 1
  3. Format                                   : AVC
  4. Format/Info                              : Advanced Video Codec
  5. Format profile                           : [email protected]
  6. Format settings                          : CABAC / 4 Ref Frames
  7. Format settings, CABAC                   : Yes
  8. Format settings, Reference frames        : 4 frames
  9. Codec ID                                 : V_MPEG4/ISO/AVC
  10. Duration                                 : 1 h 43 min
  11. Bit rate                                 : 5 231 kb/s
  12. Width                                    : 1 914 pixels
  13. Height                                   : 1 032 pixels
  14. Display aspect ratio                     : 1.85:1
  15. Frame rate mode                          : Constant
  16. Frame rate                               : 23.976 (23976/1000) FPS
  17. Color space                              : YUV
  18. Chroma subsampling                       : 4:2:0
  19. Bit depth                                : 8 bits
  20. Scan type                                : Progressive
  21. Bits/(Pixel*Frame)                       : 0.110
  22. Stream size                              : 3.80 GiB (93%)
  23. Title                                    : Modern.Life.Is.Rubbish.2017.1080p.WEB-DL.DD5.1.H264-FGT
  24. Language                                 : English
  25. Default                                  : Yes
  26. Forced                                   : No
  27. Color range                              : Limited
  28. Color primaries                          : BT.709
  29. Transfer characteristics                 : BT.709
  30. Matrix coefficients                      : BT.709

  31. Audio
  32. ID                                       : 2
  33. Format                                   : AC-3
  34. Format/Info                              : Audio Coding 3
  35. Commercial name                          : Dolby Digital
  36. Codec ID                                 : A_AC3
  37. Duration                                 : 1 h 43 min
  38. Bit rate mode                            : Constant
  39. Bit rate                                 : 384 kb/s
  40. Channel(s)                               : 6 channels
  41. Channel layout                           : L R C LFE Ls Rs
  42. Sampling rate                            : 48.0 kHz
  43. Frame rate                               : 31.250 FPS (1536 SPF)
  44. Compression mode                         : Lossy
  45. Stream size                              : 285 MiB (7%)
  46. Title                                    : Modern.Life.Is.Rubbish.2017.1080p.WEB-DL.DD5.1.H264-FGT
  47. Language                                 : English
  48. Service kind                             : Complete Main
  49. Default                                  : Yes
  50. Forced                                   : No

  51. Menu
  52. 00:00:00.000                             : en:1
  53. 00:06:55.665                             : en:2
  54. 00:16:34.243                             : en:3
  55. 00:24:00.314                             : en:4
  56. 00:31:18.752                             : en:5
  57. 00:41:14.347                             : en:6
  58. 00:48:21.691                             : en:7
  59. 00:57:32.241                             : en:8
  60. 01:06:19.977                             : en:9
  61. 01:14:46.984                             : en:10
  62. 01:23:37.264                             : en:11
  63. 01:30:32.554                             : en:12
  64. 01:39:25.086                             : en:13
复制代码

无聊现代生活/现代生活是渣滓 Modern.Life.Is.Rubbish.2017.1080p.WEB-DL.DD5.1.H264-FGT 4.08GB-2.png 无聊现代生活/现代生活是渣滓 Modern.Life.Is.Rubbish.2017.1080p.WEB-DL.DD5.1.H264-FGT 4.08GB-3.png 无聊现代生活/现代生活是渣滓 Modern.Life.Is.Rubbish.2017.1080p.WEB-DL.DD5.1.H264-FGT 4.08GB-4.png






回复

使用道具 举报

懒得打字嘛,点击右侧快捷回复 【右侧内容,后台自定义】
您需要登录后才可以回帖 登录 | 立即加入

本版积分规则

Archiver|小黑屋| 蓝光电影网 |网站地图

Copyright © 2021 Comsenz Inc. Powered by 蓝光电影网

蓝光电影网

本站内容由用户自主分享和转载自互联网,转载目的在于传递更多信息,并不代表本网赞同其观点和对其真实性负责。

如有侵权、违反国家法律政策行为,请联系我们,我们会第一时间及时清除和处理!

举报反馈邮箱:[email protected]

快速回复 返回顶部 返回列表