找回密码

蓝光电影网

查看: 579|回复: 0

[爱情] 吸血鬼/德古拉 Dracula.1979.THEATRICAL.SHOUT.1080p.BluRay.REMUX.AVC.DTS-HD.MA.2.0-FGT 28.27GB

[复制链接]
蓝光币
886
发表于 2020-2-2 12:01:25 | 显示全部楼层 |阅读模式
吸血鬼/德古拉 Dracula.1979.THEATRICAL.SHOUT.1080p.BluRay.REMUX.AVC.DTS-HD.MA.2.0-FGT 28.27GB-1.png

译  名 吸血鬼 / 德古拉
片  名 Dracula
年  代 1979
产  地 美国 / 英国
类  别 恋爱 / 可骇
语  言 英语 / 荷兰语 / 罗马尼亚语
上映日期 1979-07-20
IMDb评分  6.5/10 from 8579 users
IMDb链接  https://www.imdb.com/title/tt0079073
豆瓣评分 6.6/10 from 227 users
豆瓣链接 https://movie.douban.com/subject/1292645/
片  长 109 分钟
导  演 约翰·班德汉姆 John Badham
编  剧 巴拉姆·史多克 Bram Stoker / Hamilton Deane / John L. Balderston
主  演 弗兰克·兰格拉 Frank Langella
       劳伦斯·奥利弗 Laurence Olivier
       唐纳德·普利森斯 Donald Pleasence


标  签 吸血鬼 | 美国 | 可骇 | 哥特 | 1979 | 恋爱 | 魔幻 | Vampires

简  介  

  在众多的“吸血鬼"电影版本中,由约翰.巴德姆执导的本片著名度较低,但男配角法兰克.兰吉拉成功地缔造了一个气质崇高的名流型吸血鬼形象。报告嗜血的卓古拉伯爵分开他的古堡,跑到现代的伦敦都会去追随新的猎物,因此履历到很多风趣的遭受。论编导上的表示本片只算中规中矩,但搭配表演的资深演员劳伦斯.奥利弗和唐纳德.普莱森斯都较有看头。
  1. Video
  2. ID                                       : 1
  3. Format                                   : AVC
  4. Format/Info                              : Advanced Video Codec
  5. Format profile                           : [email protected]
  6. Format settings                          : CABAC / 4 Ref Frames
  7. Format settings, CABAC                   : Yes
  8. Format settings, Reference frames        : 4 frames
  9. Codec ID                                 : V_MPEG4/ISO/AVC
  10. Duration                                 : 1 h 49 min
  11. Bit rate mode                            : Constant
  12. Bit rate                                 : 36.0 Mb/s
  13. Width                                    : 1 920 pixels
  14. Height                                   : 1 080 pixels
  15. Display aspect ratio                     : 16:9
  16. Frame rate mode                          : Constant
  17. Frame rate                               : 23.976 (24000/1001) FPS
  18. Color space                              : YUV
  19. Chroma subsampling                       : 4:2:0
  20. Bit depth                                : 8 bits
  21. Scan type                                : Progressive
  22. Bits/(Pixel*Frame)                       : 0.724
  23. Stream size                              : 26.8 GiB (95%)
  24. Title                                    : Dracula.1979.THEATRICAL.SHOUT.1080p.BluRay.REMUX.AVC.DTS-HD.MA.2.0-FGT
  25. Language                                 : English
  26. Default                                  : No
  27. Forced                                   : No

  28. Audio #1
  29. ID                                       : 2
  30. Format                                   : DTS XLL
  31. Format/Info                              : Digital Theater Systems
  32. Commercial name                          : DTS-HD Master Audio
  33. Codec ID                                 : A_DTS
  34. Duration                                 : 1 h 49 min
  35. Bit rate mode                            : Variable
  36. Bit rate                                 : 1 646 kb/s
  37. Channel(s)                               : 2 channels
  38. Channel layout                           : L R
  39. Sampling rate                            : 48.0 kHz
  40. Frame rate                               : 93.750 FPS (512 SPF)
  41. Bit depth                                : 24 bits
  42. Compression mode                         : Lossless
  43. Stream size                              : 1.26 GiB (4%)
  44. Title                                    : Dracula.1979.THEATRICAL.SHOUT.1080p.BluRay.REMUX.AVC.DTS-HD.MA.2.0-FGT
  45. Language                                 : English
  46. Default                                  : Yes
  47. Forced                                   : No

  48. Audio #2
  49. ID                                       : 3
  50. Format                                   : AC-3
  51. Format/Info                              : Audio Coding 3
  52. Commercial name                          : Dolby Digital
  53. Codec ID                                 : A_AC3
  54. Duration                                 : 1 h 49 min
  55. Bit rate mode                            : Constant
  56. Bit rate                                 : 192 kb/s
  57. Channel(s)                               : 2 channels
  58. Channel layout                           : L R
  59. Sampling rate                            : 48.0 kHz
  60. Frame rate                               : 31.250 FPS (1536 SPF)
  61. Bit depth                                : 16 bits
  62. Compression mode                         : Lossy
  63. Stream size                              : 150 MiB (1%)
  64. Title                                    : Dracula.1979.THEATRICAL.SHOUT.1080p.BluRay.REMUX.AVC.DTS-HD.MA.2.0-FGT
  65. Language                                 : English
  66. Service kind                             : Complete Main
  67. Default                                  : No
  68. Forced                                   : No

  69. Text
  70. ID                                       : 4
  71. Format                                   : PGS
  72. Muxing mode                              : zlib
  73. Codec ID                                 : S_HDMV/PGS
  74. Codec ID/Info                            : Picture based subtitle format used on BDs/HD-DVDs
  75. Duration                                 : 1 h 46 min
  76. Bit rate                                 : 34.8 kb/s
  77. Count of elements                        : 2317
  78. Stream size                              : 26.4 MiB (0%)
  79. Title                                    : English-PGS
  80. Language                                 : English
  81. Default                                  : Yes
  82. Forced                                   : No

  83. Menu
  84. 00:00:00.000                             : en:Chapter 01
  85. 00:10:06.647                             : en:Chapter 02
  86. 00:24:09.781                             : en:Chapter 03
  87. 00:32:35.787                             : en:Chapter 04
  88. 00:41:16.891                             : en:Chapter 05
  89. 00:50:16.680                             : en:Chapter 06
  90. 00:59:27.689                             : en:Chapter 07
  91. 01:08:06.332                             : en:Chapter 08
  92. 01:16:39.636                             : en:Chapter 09
  93. 01:25:07.435                             : en:Chapter 10
  94. 01:35:06.575                             : en:Chapter 11
  95. 01:40:33.027                             : en:Chapter 12
复制代码

吸血鬼/德古拉 Dracula.1979.THEATRICAL.SHOUT.1080p.BluRay.REMUX.AVC.DTS-HD.MA.2.0-FGT 28.27GB-2.png 吸血鬼/德古拉 Dracula.1979.THEATRICAL.SHOUT.1080p.BluRay.REMUX.AVC.DTS-HD.MA.2.0-FGT 28.27GB-3.png 吸血鬼/德古拉 Dracula.1979.THEATRICAL.SHOUT.1080p.BluRay.REMUX.AVC.DTS-HD.MA.2.0-FGT 28.27GB-4.png






回复

使用道具 举报

懒得打字嘛,点击右侧快捷回复 【右侧内容,后台自定义】
您需要登录后才可以回帖 登录 | 立即加入

本版积分规则

Archiver|小黑屋| 蓝光电影网 |网站地图

Copyright © 2021 Comsenz Inc. Powered by 蓝光电影网

蓝光电影网

本站内容由用户自主分享和转载自互联网,转载目的在于传递更多信息,并不代表本网赞同其观点和对其真实性负责。

如有侵权、违反国家法律政策行为,请联系我们,我们会第一时间及时清除和处理!

举报反馈邮箱:[email protected]

快速回复 返回顶部 返回列表