找回密码

蓝光电影网

查看: 468|回复: 0

[喜剧] 比佛利山超级警探2/妙探出差2 Beverly.Hills.Cop.II.1987.REMASTERED.1080p.BluRay.REMUX.AVC.DTS-HD.MA.5.1-FGT 26.39GB

[复制链接]
蓝光币
886
发表于 2020-2-2 12:04:45 | 显示全部楼层 |阅读模式
比佛利山超级警探2/妙探出差2 Beverly.Hills.Cop.II.1987.REMASTERED.1080p.BluRay.REMUX.AVC.DTS-HD.MA.5.1-FGT 26.39GB-1.png

译  名 比佛利山超级警探2 / 妙探出差2 / 妙探出差续集 / 妙探出更续集 / 比佛利山警探2 / 轰天雷2 / 轰隆炮2
片  名 Beverly Hills Cop II
年  代 1987
产  地 美国
类  别 笑剧 / 行动 / 惊悚 / 犯罪
语  言 英语
上映日期 1987-05-20
IMDb评分  6.5/10 from 101617 users
IMDb链接  https://www.imdb.com/title/tt0092644
豆瓣评分 6.7/10 from 986 users
豆瓣链接 https://movie.douban.com/subject/1301783/
片  长 100 分钟
导  演 Tony Scott
编  剧 Larry Ferguson / Warren Skaaren / Danilo Bach / Daniel Petrie Jr. / Eddie Murphy / Robert D. Wachs
主  演 艾迪·墨菲 Eddie Murphy
       祖德·莱茵霍尔德 Judge Reinhold
       尤尔根·普洛斯诺 Jürgen Prochnow
       罗尼·考克斯 Ronny Cox
       John Ashton
       布里吉特·尼尔森 Brigitte Nielsen
       艾伦·加菲尔德 Allen Garfield
       迪恩·斯托克维尔 Dean Stockwell
       保罗·雷瑟 Paul Reiser
       Gilbert R. Hill
       保罗·盖尔福勒 Paul Guilfoyle
       Robert Ridgely
       Brian O'Connor
       Alice Adair
       Eugene Butler


标  签 笑剧 | 美国 | 行动 | 美国电影 | 犯罪 | 1987 | 警匪 | 搞笑

简  介  

  这是比佛利山超级警探的第二集。艾索(艾迪?墨菲 Eddie Murphy 饰)在上一集破案后老老实实地回到了底特律当他的刑警,回到底特律的他顿时感应百无聊赖。因而,艾索每周城市找他在洛山矶办案时结识的好朋友兼好同伴洛山矶警局的局长博格密尔(罗尼?考克斯 Ronny Cox 饰)出海钓鱼。
  可是这周博格密尔姑且取消了和艾索的钓鱼活动,事后艾索才得知本来博格密尔卷入了一单复杂危险的案件侦察中。博格密尔不幸在观察中被犯罪枪击受伤,现在正住在医院里。历来课本气、嫉恶如仇的艾索又怎能按耐得住,因而他顿时来到了洛山矶约上最好同伴比利(祖德?莱茵霍尔德 Judge Reinhold 饰),要一展身手为好友报仇。

获奖情况  

  第60届奥斯卡金像奖(1988)
  最好原创歌曲(提名) 基思·福西 / 哈罗德·方特梅耶 / Bob Seger
  1. Video
  2. ID                                       : 1
  3. Format                                   : AVC
  4. Format/Info                              : Advanced Video Codec
  5. Format profile                           : [email protected]
  6. Format settings                          : CABAC / 4 Ref Frames
  7. Format settings, CABAC                   : Yes
  8. Format settings, Reference frames        : 4 frames
  9. Codec ID                                 : V_MPEG4/ISO/AVC
  10. Duration                                 : 1 h 42 min
  11. Bit rate mode                            : Variable
  12. Bit rate                                 : 32.6 Mb/s
  13. Maximum bit rate                         : 35.0 Mb/s
  14. Width                                    : 1 920 pixels
  15. Height                                   : 1 080 pixels
  16. Display aspect ratio                     : 16:9
  17. Frame rate mode                          : Constant
  18. Frame rate                               : 23.976 (24000/1001) FPS
  19. Color space                              : YUV
  20. Chroma subsampling                       : 4:2:0
  21. Bit depth                                : 8 bits
  22. Scan type                                : Progressive
  23. Bits/(Pixel*Frame)                       : 0.656
  24. Stream size                              : 23.5 GiB (89%)
  25. Title                                    : Beverly.Hills.Cop.II.1987.REMASTERED.1080p.BluRay.REMUX.AVC.DTS-HD.MA.5.1-FGT
  26. Language                                 : English
  27. Default                                  : No
  28. Forced                                   : No

  29. Audio #1
  30. ID                                       : 2
  31. Format                                   : DTS XLL
  32. Format/Info                              : Digital Theater Systems
  33. Commercial name                          : DTS-HD Master Audio
  34. Codec ID                                 : A_DTS
  35. Duration                                 : 1 h 42 min
  36. Bit rate mode                            : Variable
  37. Bit rate                                 : 2 109 kb/s
  38. Channel(s)                               : 6 channels
  39. Channel layout                           : C L R Ls Rs LFE
  40. Sampling rate                            : 48.0 kHz
  41. Frame rate                               : 93.750 FPS (512 SPF)
  42. Bit depth                                : 24 bits
  43. Compression mode                         : Lossless
  44. Stream size                              : 1.52 GiB (6%)
  45. Title                                    : Beverly.Hills.Cop.II.1987.REMASTERED.1080p.BluRay.REMUX.AVC.DTS-HD.MA.5.1-FGT
  46. Language                                 : English
  47. Default                                  : Yes
  48. Forced                                   : No

  49. Audio #2
  50. ID                                       : 3
  51. Format                                   : AC-3
  52. Format/Info                              : Audio Coding 3
  53. Commercial name                          : Dolby Digital
  54. Codec ID                                 : A_AC3
  55. Duration                                 : 1 h 42 min
  56. Bit rate mode                            : Constant
  57. Bit rate                                 : 224 kb/s
  58. Channel(s)                               : 2 channels
  59. Channel layout                           : L R
  60. Sampling rate                            : 48.0 kHz
  61. Frame rate                               : 31.250 FPS (1536 SPF)
  62. Bit depth                                : 16 bits
  63. Compression mode                         : Lossy
  64. Stream size                              : 165 MiB (1%)
  65. Title                                    : Beverly.Hills.Cop.II.1987.REMASTERED.1080p.BluRay.REMUX.AVC.DTS-HD.MA.5.1-FGT
  66. Language                                 : German
  67. Service kind                             : Complete Main
  68. Default                                  : No
  69. Forced                                   : No

  70. Audio #3
  71. ID                                       : 4
  72. Format                                   : AC-3
  73. Format/Info                              : Audio Coding 3
  74. Commercial name                          : Dolby Digital
  75. Codec ID                                 : A_AC3
  76. Duration                                 : 1 h 42 min
  77. Bit rate mode                            : Constant
  78. Bit rate                                 : 224 kb/s
  79. Channel(s)                               : 2 channels
  80. Channel layout                           : L R
  81. Sampling rate                            : 48.0 kHz
  82. Frame rate                               : 31.250 FPS (1536 SPF)
  83. Bit depth                                : 16 bits
  84. Compression mode                         : Lossy
  85. Stream size                              : 165 MiB (1%)
  86. Title                                    : Beverly.Hills.Cop.II.1987.REMASTERED.1080p.BluRay.REMUX.AVC.DTS-HD.MA.5.1-FGT
  87. Language                                 : Spanish
  88. Service kind                             : Complete Main
  89. Default                                  : No
  90. Forced                                   : No

  91. Audio #4
  92. ID                                       : 5
  93. Format                                   : AC-3
  94. Format/Info                              : Audio Coding 3
  95. Commercial name                          : Dolby Digital
  96. Codec ID                                 : A_AC3
  97. Duration                                 : 1 h 42 min
  98. Bit rate mode                            : Constant
  99. Bit rate                                 : 224 kb/s
  100. Channel(s)                               : 2 channels
  101. Channel layout                           : L R
  102. Sampling rate                            : 48.0 kHz
  103. Frame rate                               : 31.250 FPS (1536 SPF)
  104. Bit depth                                : 16 bits
  105. Compression mode                         : Lossy
  106. Stream size                              : 165 MiB (1%)
  107. Title                                    : Beverly.Hills.Cop.II.1987.REMASTERED.1080p.BluRay.REMUX.AVC.DTS-HD.MA.5.1-FGT
  108. Language                                 : Spanish
  109. Service kind                             : Complete Main
  110. Default                                  : No
  111. Forced                                   : No

  112. Audio #5
  113. ID                                       : 6
  114. Format                                   : AC-3
  115. Format/Info                              : Audio Coding 3
  116. Commercial name                          : Dolby Digital
  117. Codec ID                                 : A_AC3
  118. Duration                                 : 1 h 42 min
  119. Bit rate mode                            : Constant
  120. Bit rate                                 : 224 kb/s
  121. Channel(s)                               : 2 channels
  122. Channel layout                           : L R
  123. Sampling rate                            : 48.0 kHz
  124. Frame rate                               : 31.250 FPS (1536 SPF)
  125. Bit depth                                : 16 bits
  126. Compression mode                         : Lossy
  127. Stream size                              : 165 MiB (1%)
  128. Title                                    : Beverly.Hills.Cop.II.1987.REMASTERED.1080p.BluRay.REMUX.AVC.DTS-HD.MA.5.1-FGT
  129. Language                                 : French
  130. Service kind                             : Complete Main
  131. Default                                  : No
  132. Forced                                   : No

  133. Audio #6
  134. ID                                       : 7
  135. Format                                   : AC-3
  136. Format/Info                              : Audio Coding 3
  137. Commercial name                          : Dolby Digital
  138. Codec ID                                 : A_AC3
  139. Duration                                 : 1 h 42 min
  140. Bit rate mode                            : Constant
  141. Bit rate                                 : 224 kb/s
  142. Channel(s)                               : 2 channels
  143. Channel layout                           : L R
  144. Sampling rate                            : 48.0 kHz
  145. Frame rate                               : 31.250 FPS (1536 SPF)
  146. Bit depth                                : 16 bits
  147. Compression mode                         : Lossy
  148. Stream size                              : 165 MiB (1%)
  149. Title                                    : Beverly.Hills.Cop.II.1987.REMASTERED.1080p.BluRay.REMUX.AVC.DTS-HD.MA.5.1-FGT
  150. Language                                 : Italian
  151. Service kind                             : Complete Main
  152. Default                                  : No
  153. Forced                                   : No

  154. Audio #7
  155. ID                                       : 8
  156. Format                                   : AC-3
  157. Format/Info                              : Audio Coding 3
  158. Commercial name                          : Dolby Digital
  159. Codec ID                                 : A_AC3
  160. Duration                                 : 1 h 42 min
  161. Bit rate mode                            : Constant
  162. Bit rate                                 : 640 kb/s
  163. Channel(s)                               : 6 channels
  164. Channel layout                           : L R C LFE Ls Rs
  165. Sampling rate                            : 48.0 kHz
  166. Frame rate                               : 31.250 FPS (1536 SPF)
  167. Bit depth                                : 16 bits
  168. Compression mode                         : Lossy
  169. Stream size                              : 471 MiB (2%)
  170. Title                                    : Beverly.Hills.Cop.II.1987.REMASTERED.1080p.BluRay.REMUX.AVC.DTS-HD.MA.5.1-FGT
  171. Language                                 : Japanese
  172. Service kind                             : Complete Main
  173. Default                                  : No
  174. Forced                                   : No

  175. Text #1
  176. ID                                       : 9
  177. Format                                   : PGS
  178. Muxing mode                              : zlib
  179. Codec ID                                 : S_HDMV/PGS
  180. Codec ID/Info                            : Picture based subtitle format used on BDs/HD-DVDs
  181. Duration                                 : 1 h 42 min
  182. Bit rate                                 : 62.9 kb/s
  183. Count of elements                        : 2568
  184. Stream size                              : 45.9 MiB (0%)
  185. Title                                    : English-PGS
  186. Language                                 : English
  187. Default                                  : Yes
  188. Forced                                   : No

  189. Text #2
  190. ID                                       : 10
  191. Format                                   : PGS
  192. Muxing mode                              : zlib
  193. Codec ID                                 : S_HDMV/PGS
  194. Codec ID/Info                            : Picture based subtitle format used on BDs/HD-DVDs
  195. Duration                                 : 1 h 42 min
  196. Bit rate                                 : 66.9 kb/s
  197. Count of elements                        : 2816
  198. Stream size                              : 48.9 MiB (0%)
  199. Title                                    : English-SDH-PGS
  200. Language                                 : English
  201. Default                                  : No
  202. Forced                                   : No

  203. Text #3
  204. ID                                       : 11
  205. Format                                   : PGS
  206. Muxing mode                              : zlib
  207. Codec ID                                 : S_HDMV/PGS
  208. Codec ID/Info                            : Picture based subtitle format used on BDs/HD-DVDs
  209. Duration                                 : 1 h 42 min
  210. Bit rate                                 : 46.0 kb/s
  211. Count of elements                        : 2296
  212. Stream size                              : 33.6 MiB (0%)
  213. Title                                    : Danish-PGS
  214. Language                                 : Danish
  215. Default                                  : No
  216. Forced                                   : No

  217. Text #4
  218. ID                                       : 12
  219. Format                                   : PGS
  220. Muxing mode                              : zlib
  221. Codec ID                                 : S_HDMV/PGS
  222. Codec ID/Info                            : Picture based subtitle format used on BDs/HD-DVDs
  223. Duration                                 : 1 h 42 min
  224. Bit rate                                 : 56.5 kb/s
  225. Count of elements                        : 2362
  226. Stream size                              : 41.3 MiB (0%)
  227. Title                                    : German-PGS
  228. Language                                 : German
  229. Default                                  : No
  230. Forced                                   : No

  231. Text #5
  232. ID                                       : 13
  233. Format                                   : PGS
  234. Muxing mode                              : zlib
  235. Codec ID                                 : S_HDMV/PGS
  236. Codec ID/Info                            : Picture based subtitle format used on BDs/HD-DVDs
  237. Duration                                 : 1 h 42 min
  238. Bit rate                                 : 48.5 kb/s
  239. Count of elements                        : 2366
  240. Stream size                              : 35.4 MiB (0%)
  241. Title                                    : Spanish-PGS
  242. Language                                 : Spanish
  243. Default                                  : No
  244. Forced                                   : No

  245. Text #6
  246. ID                                       : 14
  247. Format                                   : PGS
  248. Muxing mode                              : zlib
  249. Codec ID                                 : S_HDMV/PGS
  250. Codec ID/Info                            : Picture based subtitle format used on BDs/HD-DVDs
  251. Duration                                 : 1 h 42 min
  252. Bit rate                                 : 51.2 kb/s
  253. Count of elements                        : 2582
  254. Stream size                              : 37.4 MiB (0%)
  255. Title                                    : Spanish-PGS
  256. Language                                 : Spanish
  257. Default                                  : No
  258. Forced                                   : No

  259. Text #7
  260. ID                                       : 15
  261. Format                                   : PGS
  262. Muxing mode                              : zlib
  263. Codec ID                                 : S_HDMV/PGS
  264. Codec ID/Info                            : Picture based subtitle format used on BDs/HD-DVDs
  265. Duration                                 : 1 h 42 min
  266. Bit rate                                 : 50.7 kb/s
  267. Count of elements                        : 2326
  268. Stream size                              : 37.0 MiB (0%)
  269. Title                                    : French-PGS
  270. Language                                 : French
  271. Default                                  : No
  272. Forced                                   : No

  273. Text #8
  274. ID                                       : 16
  275. Format                                   : PGS
  276. Muxing mode                              : zlib
  277. Codec ID                                 : S_HDMV/PGS
  278. Codec ID/Info                            : Picture based subtitle format used on BDs/HD-DVDs
  279. Duration                                 : 1 h 42 min
  280. Bit rate                                 : 48.2 kb/s
  281. Count of elements                        : 2374
  282. Stream size                              : 35.2 MiB (0%)
  283. Title                                    : Italian-PGS
  284. Language                                 : Italian
  285. Default                                  : No
  286. Forced                                   : No

  287. Text #9
  288. ID                                       : 17
  289. Format                                   : PGS
  290. Muxing mode                              : zlib
  291. Codec ID                                 : S_HDMV/PGS
  292. Codec ID/Info                            : Picture based subtitle format used on BDs/HD-DVDs
  293. Duration                                 : 1 h 42 min
  294. Bit rate                                 : 25.3 kb/s
  295. Count of elements                        : 2646
  296. Stream size                              : 18.5 MiB (0%)
  297. Title                                    : Korean-PGS
  298. Language                                 : Korean
  299. Default                                  : No
  300. Forced                                   : No

  301. Text #10
  302. ID                                       : 18
  303. Format                                   : PGS
  304. Muxing mode                              : zlib
  305. Codec ID                                 : S_HDMV/PGS
  306. Codec ID/Info                            : Picture based subtitle format used on BDs/HD-DVDs
  307. Duration                                 : 1 h 42 min
  308. Bit rate                                 : 49.2 kb/s
  309. Count of elements                        : 2130
  310. Stream size                              : 35.9 MiB (0%)
  311. Title                                    : Dutch-PGS
  312. Language                                 : Dutch
  313. Default                                  : No
  314. Forced                                   : No

  315. Text #11
  316. ID                                       : 19
  317. Format                                   : PGS
  318. Muxing mode                              : zlib
  319. Codec ID                                 : S_HDMV/PGS
  320. Codec ID/Info                            : Picture based subtitle format used on BDs/HD-DVDs
  321. Duration                                 : 1 h 42 min
  322. Bit rate                                 : 43.3 kb/s
  323. Count of elements                        : 2406
  324. Stream size                              : 31.6 MiB (0%)
  325. Title                                    : Norwegian-PGS
  326. Language                                 : Norwegian
  327. Default                                  : No
  328. Forced                                   : No

  329. Text #12
  330. ID                                       : 20
  331. Format                                   : PGS
  332. Muxing mode                              : zlib
  333. Codec ID                                 : S_HDMV/PGS
  334. Codec ID/Info                            : Picture based subtitle format used on BDs/HD-DVDs
  335. Duration                                 : 1 h 42 min
  336. Bit rate                                 : 45.7 kb/s
  337. Count of elements                        : 2386
  338. Stream size                              : 33.4 MiB (0%)
  339. Title                                    : Finnish-PGS
  340. Language                                 : Finnish
  341. Default                                  : No
  342. Forced                                   : No

  343. Text #13
  344. ID                                       : 21
  345. Format                                   : PGS
  346. Muxing mode                              : zlib
  347. Codec ID                                 : S_HDMV/PGS
  348. Codec ID/Info                            : Picture based subtitle format used on BDs/HD-DVDs
  349. Duration                                 : 1 h 42 min
  350. Bit rate                                 : 45.5 kb/s
  351. Count of elements                        : 2080
  352. Stream size                              : 33.4 MiB (0%)
  353. Title                                    : Swedish-PGS
  354. Language                                 : Swedish
  355. Default                                  : No
  356. Forced                                   : No

  357. Text #14
  358. ID                                       : 22
  359. Format                                   : PGS
  360. Muxing mode                              : zlib
  361. Codec ID                                 : S_HDMV/PGS
  362. Codec ID/Info                            : Picture based subtitle format used on BDs/HD-DVDs
  363. Duration                                 : 1 h 38 min
  364. Bit rate                                 : 26.2 kb/s
  365. Count of elements                        : 2416
  366. Stream size                              : 18.5 MiB (0%)
  367. Title                                    : Japanese-PGS
  368. Language                                 : Japanese
  369. Default                                  : No
  370. Forced                                   : No

  371. Text #15
  372. ID                                       : 23
  373. Format                                   : PGS
  374. Muxing mode                              : zlib
  375. Codec ID                                 : S_HDMV/PGS
  376. Codec ID/Info                            : Picture based subtitle format used on BDs/HD-DVDs
  377. Duration                                 : 33 min 14 s
  378. Bit rate                                 : 429 b/s
  379. Count of elements                        : 8
  380. Stream size                              : 105 KiB (0%)
  381. Title                                    : German-FORCED-PGS
  382. Language                                 : German
  383. Default                                  : No
  384. Forced                                   : No

  385. Text #16
  386. ID                                       : 24
  387. Format                                   : PGS
  388. Muxing mode                              : zlib
  389. Codec ID                                 : S_HDMV/PGS
  390. Codec ID/Info                            : Picture based subtitle format used on BDs/HD-DVDs
  391. Duration                                 : 1 h 41 min
  392. Bit rate                                 : 513 b/s
  393. Count of elements                        : 24
  394. Stream size                              : 381 KiB (0%)
  395. Title                                    : Spanish-FORCED-PGS
  396. Language                                 : Spanish
  397. Default                                  : No
  398. Forced                                   : No

  399. Text #17
  400. ID                                       : 25
  401. Format                                   : PGS
  402. Muxing mode                              : zlib
  403. Codec ID                                 : S_HDMV/PGS
  404. Codec ID/Info                            : Picture based subtitle format used on BDs/HD-DVDs
  405. Duration                                 : 33 min 14 s
  406. Bit rate                                 : 587 b/s
  407. Count of elements                        : 8
  408. Stream size                              : 143 KiB (0%)
  409. Title                                    : Spanish-FORCED-PGS
  410. Language                                 : Spanish
  411. Default                                  : No
  412. Forced                                   : No

  413. Text #18
  414. ID                                       : 26
  415. Format                                   : PGS
  416. Muxing mode                              : zlib
  417. Codec ID                                 : S_HDMV/PGS
  418. Codec ID/Info                            : Picture based subtitle format used on BDs/HD-DVDs
  419. Duration                                 : 33 min 14 s
  420. Bit rate                                 : 542 b/s
  421. Count of elements                        : 8
  422. Stream size                              : 132 KiB (0%)
  423. Title                                    : French-FORCED-PGS
  424. Language                                 : French
  425. Default                                  : No
  426. Forced                                   : No

  427. Text #19
  428. ID                                       : 27
  429. Format                                   : PGS
  430. Muxing mode                              : zlib
  431. Codec ID                                 : S_HDMV/PGS
  432. Codec ID/Info                            : Picture based subtitle format used on BDs/HD-DVDs
  433. Duration                                 : 33 min 14 s
  434. Bit rate                                 : 595 b/s
  435. Count of elements                        : 8
  436. Stream size                              : 145 KiB (0%)
  437. Title                                    : Italian-FORCED-PGS
  438. Language                                 : Italian
  439. Default                                  : No
  440. Forced                                   : No

  441. Text #20
  442. ID                                       : 28
  443. Format                                   : PGS
  444. Muxing mode                              : zlib
  445. Codec ID                                 : S_HDMV/PGS
  446. Codec ID/Info                            : Picture based subtitle format used on BDs/HD-DVDs
  447. Duration                                 : 1 h 18 min
  448. Bit rate                                 : 478 b/s
  449. Count of elements                        : 30
  450. Stream size                              : 274 KiB (0%)
  451. Title                                    : Japanese-FORCED-PGS
  452. Language                                 : Japanese
  453. Default                                  : No
  454. Forced                                   : No

  455. Menu
  456. 00:00:00.000                             : en:Chapter 01
  457. 00:02:51.838                             : en:Chapter 02
  458. 00:09:17.056                             : en:Chapter 03
  459. 00:14:30.286                             : en:Chapter 04
  460. 00:22:11.621                             : en:Chapter 05
  461. 00:29:30.101                             : en:Chapter 06
  462. 00:46:25.741                             : en:Chapter 07
  463. 00:52:24.933                             : en:Chapter 08
  464. 01:02:05.722                             : en:Chapter 09
  465. 01:15:37.366                             : en:Chapter 10
  466. 01:23:45.520                             : en:Chapter 11
  467. 01:36:35.790                             : en:Chapter 12
  468. 01:38:53.344                             : en:Chapter 13
复制代码

比佛利山超级警探2/妙探出差2 Beverly.Hills.Cop.II.1987.REMASTERED.1080p.BluRay.REMUX.AVC.DTS-HD.MA.5.1-FGT 26.39GB-2.png 比佛利山超级警探2/妙探出差2 Beverly.Hills.Cop.II.1987.REMASTERED.1080p.BluRay.REMUX.AVC.DTS-HD.MA.5.1-FGT 26.39GB-3.png 比佛利山超级警探2/妙探出差2 Beverly.Hills.Cop.II.1987.REMASTERED.1080p.BluRay.REMUX.AVC.DTS-HD.MA.5.1-FGT 26.39GB-1.png






回复

使用道具 举报

懒得打字嘛,点击右侧快捷回复 【右侧内容,后台自定义】
您需要登录后才可以回帖 登录 | 立即加入

本版积分规则

Archiver|小黑屋| 蓝光电影网 |网站地图

Copyright © 2021 Comsenz Inc. Powered by 蓝光电影网

蓝光电影网

本站内容由用户自主分享和转载自互联网,转载目的在于传递更多信息,并不代表本网赞同其观点和对其真实性负责。

如有侵权、违反国家法律政策行为,请联系我们,我们会第一时间及时清除和处理!

举报反馈邮箱:[email protected]

快速回复 返回顶部 返回列表