找回密码

蓝光电影网

查看: 426|回复: 1

[喜剧] 比佛利山超级警探/妙探出差 Beverly.Hills.Cop.1984.REMASTERED.1080p.BluRay.REMUX.AVC.DTS-HD.MA.5.1-FGT 29.85GB

[复制链接]
蓝光币
886
发表于 2020-2-2 12:10:25 | 显示全部楼层 |阅读模式
比佛利山超级警探/妙探出差 Beverly.Hills.Cop.1984.REMASTERED.1080p.BluRay.REMUX.AVC.DTS-HD.MA.5.1-FGT 29.85GB-1.png

译  名 比佛利山超级警探 / 妙探出差(港) / 妙探出更 / 比佛利山警探 / 轰天雷 / 轰隆炮
片  名 Beverly Hills Cop
年  代 1984
产  地 美国
类  别 剧情 / 笑剧 / 行动 / 惊悚 / 犯罪
语  言 英语
上映日期 1984-12-05
IMDb评分  7.3/10 from 153739 users
IMDb链接  https://www.imdb.com/title/tt0086960
豆瓣评分 6.8/10 from 1750 users
豆瓣链接 https://movie.douban.com/subject/1301782/
片  长 105 分钟
导  演 Martin Brest
编  剧 Daniel Petrie Jr. / Danilo Bach
主  演 Eddie Murphy
       Judge Reinhold
       John Ashton
       Lisa Eilbacher
       Ronny Cox


标  签 笑剧 | 美国 | 行动 | 1984 | 美国电影 | 犯罪 | 警匪 | EddieMurphy

简  介  

  艾索(艾迪?墨菲 Eddie Murphy 饰)是底特律黑白两道的台甫人,身为警探,却也不时干些偷鸡摸狗的活动,而且他侦办案件时经常不按法式处事,下属对他非常头痛。此日,艾索由于敲诈烟贩而差点被解雇进来,幸亏好命运才免遭于难。
  艾索偶遇了一位刚出狱的好友,这人带着巨额的德国债券来到了底特律。两人重逢后未几,艾索的这位朋友就被谋杀了。深谙此事不简单,艾索起头了观察。他单独一人追踪怀疑人维克多来到了好莱坞的比佛利山,正当他预备上前盘问时,却被当地差人带回了警局。当艾索观察得知维多克简直在贩毒时,当地的警长赞成介入观察,却将艾索打发回故乡。艾索只好劝说当地的一位警察比利(祖德?莱茵霍尔德 Judge Reinhold 饰)和他合作,两人起头了擅自观察。

获奖情况  

  第57届奥斯卡金像奖(1985)
  最好原创剧本(提名) 小丹尼尔·皮特里 / 达尼洛·巴赫
  1. Video
  2. ID                                       : 1
  3. Format                                   : AVC
  4. Format/Info                              : Advanced Video Codec
  5. Format profile                           : [email protected]
  6. Format settings                          : CABAC / 4 Ref Frames
  7. Format settings, CABAC                   : Yes
  8. Format settings, Reference frames        : 4 frames
  9. Codec ID                                 : V_MPEG4/ISO/AVC
  10. Duration                                 : 1 h 45 min
  11. Bit rate mode                            : Variable
  12. Bit rate                                 : 32.7 Mb/s
  13. Maximum bit rate                         : 35.0 Mb/s
  14. Width                                    : 1 920 pixels
  15. Height                                   : 1 080 pixels
  16. Display aspect ratio                     : 16:9
  17. Frame rate mode                          : Constant
  18. Frame rate                               : 23.976 (24000/1001) FPS
  19. Color space                              : YUV
  20. Chroma subsampling                       : 4:2:0
  21. Bit depth                                : 8 bits
  22. Scan type                                : Progressive
  23. Bits/(Pixel*Frame)                       : 0.659
  24. Stream size                              : 24.0 GiB (81%)
  25. Title                                    : Beverly.Hills.Cop.1984.REMASTERED.1080p.BluRay.REMUX.AVC.DTS-HD.MA.5.1-FGT
  26. Language                                 : English
  27. Default                                  : No
  28. Forced                                   : No

  29. Audio #1
  30. ID                                       : 2
  31. Format                                   : DTS XLL
  32. Format/Info                              : Digital Theater Systems
  33. Commercial name                          : DTS-HD Master Audio
  34. Codec ID                                 : A_DTS
  35. Duration                                 : 1 h 45 min
  36. Bit rate mode                            : Variable
  37. Bit rate                                 : 3 965 kb/s
  38. Channel(s)                               : 6 channels
  39. Channel layout                           : C L R Ls Rs LFE
  40. Sampling rate                            : 48.0 kHz
  41. Frame rate                               : 93.750 FPS (512 SPF)
  42. Bit depth                                : 24 bits
  43. Compression mode                         : Lossless
  44. Stream size                              : 2.91 GiB (10%)
  45. Title                                    : Beverly.Hills.Cop.1984.REMASTERED.1080p.BluRay.REMUX.AVC.DTS-HD.MA.5.1-FGT
  46. Language                                 : English
  47. Default                                  : Yes
  48. Forced                                   : No

  49. Audio #2
  50. ID                                       : 3
  51. Format                                   : AC-3
  52. Format/Info                              : Audio Coding 3
  53. Commercial name                          : Dolby Digital
  54. Codec ID                                 : A_AC3
  55. Duration                                 : 1 h 45 min
  56. Bit rate mode                            : Constant
  57. Bit rate                                 : 640 kb/s
  58. Channel(s)                               : 6 channels
  59. Channel layout                           : L R C LFE Ls Rs
  60. Sampling rate                            : 48.0 kHz
  61. Frame rate                               : 31.250 FPS (1536 SPF)
  62. Bit depth                                : 16 bits
  63. Compression mode                         : Lossy
  64. Stream size                              : 481 MiB (2%)
  65. Title                                    : Beverly.Hills.Cop.1984.REMASTERED.1080p.BluRay.REMUX.AVC.DTS-HD.MA.5.1-FGT
  66. Language                                 : English
  67. Service kind                             : Complete Main
  68. Default                                  : No
  69. Forced                                   : No

  70. Audio #3
  71. ID                                       : 4
  72. Format                                   : AC-3
  73. Format/Info                              : Audio Coding 3
  74. Commercial name                          : Dolby Digital
  75. Codec ID                                 : A_AC3
  76. Duration                                 : 1 h 45 min
  77. Bit rate mode                            : Constant
  78. Bit rate                                 : 224 kb/s
  79. Channel(s)                               : 2 channels
  80. Channel layout                           : L R
  81. Sampling rate                            : 48.0 kHz
  82. Frame rate                               : 31.250 FPS (1536 SPF)
  83. Bit depth                                : 16 bits
  84. Compression mode                         : Lossy
  85. Stream size                              : 168 MiB (1%)
  86. Title                                    : Beverly.Hills.Cop.1984.REMASTERED.1080p.BluRay.REMUX.AVC.DTS-HD.MA.5.1-FGT
  87. Language                                 : German
  88. Service kind                             : Complete Main
  89. Default                                  : No
  90. Forced                                   : No

  91. Audio #4
  92. ID                                       : 5
  93. Format                                   : AC-3
  94. Format/Info                              : Audio Coding 3
  95. Commercial name                          : Dolby Digital
  96. Codec ID                                 : A_AC3
  97. Duration                                 : 1 h 45 min
  98. Bit rate mode                            : Constant
  99. Bit rate                                 : 224 kb/s
  100. Channel(s)                               : 2 channels
  101. Channel layout                           : L R
  102. Sampling rate                            : 48.0 kHz
  103. Frame rate                               : 31.250 FPS (1536 SPF)
  104. Bit depth                                : 16 bits
  105. Compression mode                         : Lossy
  106. Stream size                              : 168 MiB (1%)
  107. Title                                    : Beverly.Hills.Cop.1984.REMASTERED.1080p.BluRay.REMUX.AVC.DTS-HD.MA.5.1-FGT
  108. Language                                 : Spanish
  109. Service kind                             : Complete Main
  110. Default                                  : No
  111. Forced                                   : No

  112. Audio #5
  113. ID                                       : 6
  114. Format                                   : AC-3
  115. Format/Info                              : Audio Coding 3
  116. Commercial name                          : Dolby Digital
  117. Codec ID                                 : A_AC3
  118. Duration                                 : 1 h 45 min
  119. Bit rate mode                            : Constant
  120. Bit rate                                 : 640 kb/s
  121. Channel(s)                               : 6 channels
  122. Channel layout                           : L R C LFE Ls Rs
  123. Sampling rate                            : 48.0 kHz
  124. Frame rate                               : 31.250 FPS (1536 SPF)
  125. Bit depth                                : 16 bits
  126. Compression mode                         : Lossy
  127. Stream size                              : 481 MiB (2%)
  128. Title                                    : Beverly.Hills.Cop.1984.REMASTERED.1080p.BluRay.REMUX.AVC.DTS-HD.MA.5.1-FGT
  129. Language                                 : Spanish
  130. Service kind                             : Complete Main
  131. Default                                  : No
  132. Forced                                   : No

  133. Audio #6
  134. ID                                       : 7
  135. Format                                   : AC-3
  136. Format/Info                              : Audio Coding 3
  137. Commercial name                          : Dolby Digital
  138. Codec ID                                 : A_AC3
  139. Duration                                 : 1 h 45 min
  140. Bit rate mode                            : Constant
  141. Bit rate                                 : 224 kb/s
  142. Channel(s)                               : 2 channels
  143. Channel layout                           : L R
  144. Sampling rate                            : 48.0 kHz
  145. Frame rate                               : 31.250 FPS (1536 SPF)
  146. Bit depth                                : 16 bits
  147. Compression mode                         : Lossy
  148. Stream size                              : 168 MiB (1%)
  149. Title                                    : Beverly.Hills.Cop.1984.REMASTERED.1080p.BluRay.REMUX.AVC.DTS-HD.MA.5.1-FGT
  150. Language                                 : French
  151. Service kind                             : Complete Main
  152. Default                                  : No
  153. Forced                                   : No

  154. Audio #7
  155. ID                                       : 8
  156. Format                                   : AC-3
  157. Format/Info                              : Audio Coding 3
  158. Commercial name                          : Dolby Digital
  159. Codec ID                                 : A_AC3
  160. Duration                                 : 1 h 45 min
  161. Bit rate mode                            : Constant
  162. Bit rate                                 : 224 kb/s
  163. Channel(s)                               : 2 channels
  164. Channel layout                           : L R
  165. Sampling rate                            : 48.0 kHz
  166. Frame rate                               : 31.250 FPS (1536 SPF)
  167. Bit depth                                : 16 bits
  168. Compression mode                         : Lossy
  169. Stream size                              : 168 MiB (1%)
  170. Title                                    : Beverly.Hills.Cop.1984.REMASTERED.1080p.BluRay.REMUX.AVC.DTS-HD.MA.5.1-FGT
  171. Language                                 : Italian
  172. Service kind                             : Complete Main
  173. Default                                  : No
  174. Forced                                   : No

  175. Audio #8
  176. ID                                       : 9
  177. Format                                   : AC-3
  178. Format/Info                              : Audio Coding 3
  179. Commercial name                          : Dolby Digital
  180. Codec ID                                 : A_AC3
  181. Duration                                 : 1 h 45 min
  182. Bit rate mode                            : Constant
  183. Bit rate                                 : 640 kb/s
  184. Channel(s)                               : 6 channels
  185. Channel layout                           : L R C LFE Ls Rs
  186. Sampling rate                            : 48.0 kHz
  187. Frame rate                               : 31.250 FPS (1536 SPF)
  188. Bit depth                                : 16 bits
  189. Compression mode                         : Lossy
  190. Stream size                              : 481 MiB (2%)
  191. Title                                    : Beverly.Hills.Cop.1984.REMASTERED.1080p.BluRay.REMUX.AVC.DTS-HD.MA.5.1-FGT
  192. Language                                 : Japanese
  193. Service kind                             : Complete Main
  194. Default                                  : No
  195. Forced                                   : No

  196. Audio #9
  197. ID                                       : 10
  198. Format                                   : AC-3
  199. Format/Info                              : Audio Coding 3
  200. Commercial name                          : Dolby Digital
  201. Codec ID                                 : A_AC3
  202. Duration                                 : 1 h 45 min
  203. Bit rate mode                            : Constant
  204. Bit rate                                 : 224 kb/s
  205. Channel(s)                               : 2 channels
  206. Channel layout                           : L R
  207. Sampling rate                            : 48.0 kHz
  208. Frame rate                               : 31.250 FPS (1536 SPF)
  209. Bit depth                                : 16 bits
  210. Compression mode                         : Lossy
  211. Stream size                              : 168 MiB (1%)
  212. Title                                    : Beverly.Hills.Cop.1984.REMASTERED.1080p.BluRay.REMUX.AVC.DTS-HD.MA.5.1-FGT
  213. Language                                 : English
  214. Service kind                             : Complete Main
  215. Default                                  : No
  216. Forced                                   : No

  217. Audio #10
  218. ID                                       : 11
  219. Format                                   : AC-3
  220. Format/Info                              : Audio Coding 3
  221. Commercial name                          : Dolby Digital
  222. Codec ID                                 : A_AC3
  223. Duration                                 : 1 h 45 min
  224. Bit rate mode                            : Constant
  225. Bit rate                                 : 640 kb/s
  226. Channel(s)                               : 6 channels
  227. Channel layout                           : L R C LFE Ls Rs
  228. Sampling rate                            : 48.0 kHz
  229. Frame rate                               : 31.250 FPS (1536 SPF)
  230. Bit depth                                : 16 bits
  231. Compression mode                         : Lossy
  232. Stream size                              : 481 MiB (2%)
  233. Title                                    : Beverly.Hills.Cop.1984.REMASTERED.1080p.BluRay.REMUX.AVC.DTS-HD.MA.5.1-FGT
  234. Language                                 : English
  235. Service kind                             : Complete Main
  236. Default                                  : No
  237. Forced                                   : No

  238. Text #1
  239. ID                                       : 12
  240. Format                                   : PGS
  241. Muxing mode                              : zlib
  242. Codec ID                                 : S_HDMV/PGS
  243. Codec ID/Info                            : Picture based subtitle format used on BDs/HD-DVDs
  244. Duration                                 : 1 h 38 min
  245. Bit rate                                 : 61.6 kb/s
  246. Count of elements                        : 2645
  247. Stream size                              : 43.3 MiB (0%)
  248. Title                                    : English-PGS
  249. Language                                 : English
  250. Default                                  : Yes
  251. Forced                                   : No

  252. Text #2
  253. ID                                       : 13
  254. Format                                   : PGS
  255. Muxing mode                              : zlib
  256. Codec ID                                 : S_HDMV/PGS
  257. Codec ID/Info                            : Picture based subtitle format used on BDs/HD-DVDs
  258. Duration                                 : 1 h 40 min
  259. Bit rate                                 : 63.3 kb/s
  260. Count of elements                        : 2821
  261. Stream size                              : 45.3 MiB (0%)
  262. Title                                    : English-SDH-PGS
  263. Language                                 : English
  264. Default                                  : No
  265. Forced                                   : No

  266. Text #3
  267. ID                                       : 14
  268. Format                                   : PGS
  269. Muxing mode                              : zlib
  270. Codec ID                                 : S_HDMV/PGS
  271. Codec ID/Info                            : Picture based subtitle format used on BDs/HD-DVDs
  272. Duration                                 : 1 h 42 min
  273. Bit rate                                 : 41.5 kb/s
  274. Count of elements                        : 2475
  275. Stream size                              : 30.4 MiB (0%)
  276. Title                                    : Danish-PGS
  277. Language                                 : Danish
  278. Default                                  : No
  279. Forced                                   : No

  280. Text #4
  281. ID                                       : 15
  282. Format                                   : PGS
  283. Muxing mode                              : zlib
  284. Codec ID                                 : S_HDMV/PGS
  285. Codec ID/Info                            : Picture based subtitle format used on BDs/HD-DVDs
  286. Duration                                 : 1 h 42 min
  287. Bit rate                                 : 53.1 kb/s
  288. Count of elements                        : 2659
  289. Stream size                              : 38.9 MiB (0%)
  290. Title                                    : German-PGS
  291. Language                                 : German
  292. Default                                  : No
  293. Forced                                   : No

  294. Text #5
  295. ID                                       : 16
  296. Format                                   : PGS
  297. Muxing mode                              : zlib
  298. Codec ID                                 : S_HDMV/PGS
  299. Codec ID/Info                            : Picture based subtitle format used on BDs/HD-DVDs
  300. Duration                                 : 1 h 44 min
  301. Bit rate                                 : 45.0 kb/s
  302. Count of elements                        : 2241
  303. Stream size                              : 33.6 MiB (0%)
  304. Title                                    : Spanish-PGS
  305. Language                                 : Spanish
  306. Default                                  : No
  307. Forced                                   : No

  308. Text #6
  309. ID                                       : 17
  310. Format                                   : PGS
  311. Muxing mode                              : zlib
  312. Codec ID                                 : S_HDMV/PGS
  313. Codec ID/Info                            : Picture based subtitle format used on BDs/HD-DVDs
  314. Duration                                 : 1 h 40 min
  315. Bit rate                                 : 53.7 kb/s
  316. Count of elements                        : 2647
  317. Stream size                              : 38.5 MiB (0%)
  318. Title                                    : Spanish-PGS
  319. Language                                 : Spanish
  320. Default                                  : No
  321. Forced                                   : No

  322. Text #7
  323. ID                                       : 18
  324. Format                                   : PGS
  325. Muxing mode                              : zlib
  326. Codec ID                                 : S_HDMV/PGS
  327. Codec ID/Info                            : Picture based subtitle format used on BDs/HD-DVDs
  328. Duration                                 : 1 h 44 min
  329. Bit rate                                 : 44.7 kb/s
  330. Count of elements                        : 2561
  331. Stream size                              : 33.3 MiB (0%)
  332. Title                                    : French-PGS
  333. Language                                 : French
  334. Default                                  : No
  335. Forced                                   : No

  336. Text #8
  337. ID                                       : 19
  338. Format                                   : PGS
  339. Muxing mode                              : zlib
  340. Codec ID                                 : S_HDMV/PGS
  341. Codec ID/Info                            : Picture based subtitle format used on BDs/HD-DVDs
  342. Duration                                 : 1 h 42 min
  343. Bit rate                                 : 44.3 kb/s
  344. Count of elements                        : 2403
  345. Stream size                              : 32.5 MiB (0%)
  346. Title                                    : Italian-PGS
  347. Language                                 : Italian
  348. Default                                  : No
  349. Forced                                   : No

  350. Text #9
  351. ID                                       : 20
  352. Format                                   : PGS
  353. Muxing mode                              : zlib
  354. Codec ID                                 : S_HDMV/PGS
  355. Codec ID/Info                            : Picture based subtitle format used on BDs/HD-DVDs
  356. Duration                                 : 1 h 38 min
  357. Bit rate                                 : 23.9 kb/s
  358. Count of elements                        : 2294
  359. Stream size                              : 16.8 MiB (0%)
  360. Title                                    : Japanese-PGS
  361. Language                                 : Japanese
  362. Default                                  : No
  363. Forced                                   : No

  364. Text #10
  365. ID                                       : 21
  366. Format                                   : PGS
  367. Muxing mode                              : zlib
  368. Codec ID                                 : S_HDMV/PGS
  369. Codec ID/Info                            : Picture based subtitle format used on BDs/HD-DVDs
  370. Duration                                 : 1 h 44 min
  371. Bit rate                                 : 27.5 kb/s
  372. Count of elements                        : 2662
  373. Stream size                              : 20.5 MiB (0%)
  374. Title                                    : Korean-PGS
  375. Language                                 : Korean
  376. Default                                  : No
  377. Forced                                   : No

  378. Text #11
  379. ID                                       : 22
  380. Format                                   : PGS
  381. Muxing mode                              : zlib
  382. Codec ID                                 : S_HDMV/PGS
  383. Codec ID/Info                            : Picture based subtitle format used on BDs/HD-DVDs
  384. Duration                                 : 1 h 42 min
  385. Bit rate                                 : 45.6 kb/s
  386. Count of elements                        : 2139
  387. Stream size                              : 33.4 MiB (0%)
  388. Title                                    : Dutch-PGS
  389. Language                                 : Dutch
  390. Default                                  : No
  391. Forced                                   : No

  392. Text #12
  393. ID                                       : 23
  394. Format                                   : PGS
  395. Muxing mode                              : zlib
  396. Codec ID                                 : S_HDMV/PGS
  397. Codec ID/Info                            : Picture based subtitle format used on BDs/HD-DVDs
  398. Duration                                 : 1 h 42 min
  399. Bit rate                                 : 40.3 kb/s
  400. Count of elements                        : 2065
  401. Stream size                              : 29.5 MiB (0%)
  402. Title                                    : Norwegian-PGS
  403. Language                                 : Norwegian
  404. Default                                  : No
  405. Forced                                   : No

  406. Text #13
  407. ID                                       : 24
  408. Format                                   : PGS
  409. Muxing mode                              : zlib
  410. Codec ID                                 : S_HDMV/PGS
  411. Codec ID/Info                            : Picture based subtitle format used on BDs/HD-DVDs
  412. Duration                                 : 1 h 42 min
  413. Bit rate                                 : 45.3 kb/s
  414. Count of elements                        : 2189
  415. Stream size                              : 33.2 MiB (0%)
  416. Title                                    : Finnish-PGS
  417. Language                                 : Finnish
  418. Default                                  : No
  419. Forced                                   : No

  420. Text #14
  421. ID                                       : 25
  422. Format                                   : PGS
  423. Muxing mode                              : zlib
  424. Codec ID                                 : S_HDMV/PGS
  425. Codec ID/Info                            : Picture based subtitle format used on BDs/HD-DVDs
  426. Duration                                 : 1 h 42 min
  427. Bit rate                                 : 42.5 kb/s
  428. Count of elements                        : 2165
  429. Stream size                              : 31.1 MiB (0%)
  430. Title                                    : Swedish-PGS
  431. Language                                 : Swedish
  432. Default                                  : No
  433. Forced                                   : No

  434. Text #15
  435. ID                                       : 26
  436. Format                                   : PGS
  437. Muxing mode                              : zlib
  438. Codec ID                                 : S_HDMV/PGS
  439. Codec ID/Info                            : Picture based subtitle format used on BDs/HD-DVDs
  440. Duration                                 : 1 h 44 min
  441. Bit rate                                 : 49.5 kb/s
  442. Count of elements                        : 1890
  443. Stream size                              : 37.1 MiB (0%)
  444. Title                                    : English-COMMENTARY-PGS
  445. Language                                 : English
  446. Default                                  : No
  447. Forced                                   : No

  448. Text #16
  449. ID                                       : 27
  450. Format                                   : PGS
  451. Muxing mode                              : zlib
  452. Codec ID                                 : S_HDMV/PGS
  453. Codec ID/Info                            : Picture based subtitle format used on BDs/HD-DVDs
  454. Duration                                 : 1 h 44 min
  455. Bit rate                                 : 42.7 kb/s
  456. Count of elements                        : 1886
  457. Stream size                              : 32.0 MiB (0%)
  458. Title                                    : German-COMMENTARY-PGS
  459. Language                                 : German
  460. Default                                  : No
  461. Forced                                   : No

  462. Text #17
  463. ID                                       : 28
  464. Format                                   : PGS
  465. Muxing mode                              : zlib
  466. Codec ID                                 : S_HDMV/PGS
  467. Codec ID/Info                            : Picture based subtitle format used on BDs/HD-DVDs
  468. Duration                                 : 1 h 44 min
  469. Bit rate                                 : 38.2 kb/s
  470. Count of elements                        : 1624
  471. Stream size                              : 28.7 MiB (0%)
  472. Title                                    : Spanish-COMMENTARY-PGS
  473. Language                                 : Spanish
  474. Default                                  : No
  475. Forced                                   : No

  476. Text #18
  477. ID                                       : 29
  478. Format                                   : PGS
  479. Muxing mode                              : zlib
  480. Codec ID                                 : S_HDMV/PGS
  481. Codec ID/Info                            : Picture based subtitle format used on BDs/HD-DVDs
  482. Duration                                 : 1 h 44 min
  483. Bit rate                                 : 34.5 kb/s
  484. Count of elements                        : 2026
  485. Stream size                              : 25.9 MiB (0%)
  486. Title                                    : Spanish-COMMENTARY-PGS
  487. Language                                 : Spanish
  488. Default                                  : No
  489. Forced                                   : No

  490. Text #19
  491. ID                                       : 30
  492. Format                                   : PGS
  493. Muxing mode                              : zlib
  494. Codec ID                                 : S_HDMV/PGS
  495. Codec ID/Info                            : Picture based subtitle format used on BDs/HD-DVDs
  496. Duration                                 : 1 h 44 min
  497. Bit rate                                 : 41.6 kb/s
  498. Count of elements                        : 1878
  499. Stream size                              : 31.2 MiB (0%)
  500. Title                                    : French-COMMENTARY-PGS
  501. Language                                 : French
  502. Default                                  : No
  503. Forced                                   : No

  504. Text #20
  505. ID                                       : 31
  506. Format                                   : PGS
  507. Muxing mode                              : zlib
  508. Codec ID                                 : S_HDMV/PGS
  509. Codec ID/Info                            : Picture based subtitle format used on BDs/HD-DVDs
  510. Duration                                 : 1 h 44 min
  511. Bit rate                                 : 40.6 kb/s
  512. Count of elements                        : 1672
  513. Stream size                              : 30.4 MiB (0%)
  514. Title                                    : Italian-COMMENTARY-PGS
  515. Language                                 : Italian
  516. Default                                  : No
  517. Forced                                   : No

  518. Text #21
  519. ID                                       : 32
  520. Format                                   : PGS
  521. Muxing mode                              : zlib
  522. Codec ID                                 : S_HDMV/PGS
  523. Codec ID/Info                            : Picture based subtitle format used on BDs/HD-DVDs
  524. Duration                                 : 1 h 40 min
  525. Bit rate                                 : 24.9 kb/s
  526. Count of elements                        : 1342
  527. Stream size                              : 18.0 MiB (0%)
  528. Title                                    : Japanese-COMMENTARY-PGS
  529. Language                                 : Japanese
  530. Default                                  : No
  531. Forced                                   : No

  532. Text #22
  533. ID                                       : 33
  534. Format                                   : PGS
  535. Muxing mode                              : zlib
  536. Codec ID                                 : S_HDMV/PGS
  537. Codec ID/Info                            : Picture based subtitle format used on BDs/HD-DVDs
  538. Duration                                 : 1 h 44 min
  539. Bit rate                                 : 21.0 kb/s
  540. Count of elements                        : 2024
  541. Stream size                              : 15.8 MiB (0%)
  542. Title                                    : Korean-COMMENTARY-PGS
  543. Language                                 : Korean
  544. Default                                  : No
  545. Forced                                   : No

  546. Text #23
  547. ID                                       : 34
  548. Format                                   : PGS
  549. Muxing mode                              : zlib
  550. Codec ID                                 : S_HDMV/PGS
  551. Codec ID/Info                            : Picture based subtitle format used on BDs/HD-DVDs
  552. Duration                                 : 1 min 4 s
  553. Bit rate                                 : 37.5 kb/s
  554. Count of elements                        : 40
  555. Stream size                              : 296 KiB (0%)
  556. Title                                    : Japanese-FORCED-PGS
  557. Language                                 : Japanese
  558. Default                                  : No
  559. Forced                                   : No

  560. Menu
  561. 00:00:00.000                             : en:Chapter 01
  562. 00:10:58.491                             : en:Chapter 02
  563. 00:19:31.670                             : en:Chapter 03
  564. 00:36:03.578                             : en:Chapter 04
  565. 00:45:07.162                             : en:Chapter 05
  566. 00:49:28.840                             : en:Chapter 06
  567. 00:58:39.599                             : en:Chapter 07
  568. 01:13:16.100                             : en:Chapter 08
  569. 01:23:22.664                             : en:Chapter 09
  570. 01:38:28.193                             : en:Chapter 10
  571. 01:41:04.433                             : en:Chapter 11
复制代码

比佛利山超级警探/妙探出差 Beverly.Hills.Cop.1984.REMASTERED.1080p.BluRay.REMUX.AVC.DTS-HD.MA.5.1-FGT 29.85GB-2.png 比佛利山超级警探/妙探出差 Beverly.Hills.Cop.1984.REMASTERED.1080p.BluRay.REMUX.AVC.DTS-HD.MA.5.1-FGT 29.85GB-2.png 比佛利山超级警探/妙探出差 Beverly.Hills.Cop.1984.REMASTERED.1080p.BluRay.REMUX.AVC.DTS-HD.MA.5.1-FGT 29.85GB-4.png






回复

使用道具 举报

蓝光币
213
发表于 2020-2-3 18:46:17 | 显示全部楼层
谢谢楼主无私分享
回复 支持 反对

使用道具 举报

懒得打字嘛,点击右侧快捷回复 【右侧内容,后台自定义】
您需要登录后才可以回帖 登录 | 立即加入

本版积分规则

Archiver|小黑屋| 蓝光电影网 |网站地图

Copyright © 2021 Comsenz Inc. Powered by 蓝光电影网

蓝光电影网

本站内容由用户自主分享和转载自互联网,转载目的在于传递更多信息,并不代表本网赞同其观点和对其真实性负责。

如有侵权、违反国家法律政策行为,请联系我们,我们会第一时间及时清除和处理!

举报反馈邮箱:[email protected]

快速回复 返回顶部 返回列表