找回密码

蓝光电影网

查看: 164|回复: 0

[惊悚] 万圣节恐怖故事 Halloween.Horror.Tales.2018.1080p.AMZN.WEBRip.AAC2.0.x264-CM 5.38GB

[复制链接]
蓝光币
886
发表于 2020-2-2 12:11:53 | 显示全部楼层 |阅读模式
万圣节可骇故事 Halloween.Horror.Tales.2018.1080p.AMZN.WEBRip.AAC2.0.x264-CM 5.38GB-1.png

译  名 万圣节可骇故事
片  名 Halloween Horror Tales
年  代 2018
产  地 美国
类  别 惊悚 / 可骇
语  言 英语
上映日期 2018-11-29(美国)
IMDb评分  1.8/10 from 123 users
IMDb链接  https://www.imdb.com/title/tt9369332
豆瓣评分 0/10 from 0 users
豆瓣链接 https://movie.douban.com/subject/30402101/
导  演 Jeff Kirkendall
编  剧 Jeff Kirkendall

标  签 分段式 | 美国电影 | 惊悚 | 可骇

简  介  

  一部四部故事的全集可骇电影。Die Laughing是一位神经病杀手小丑跟踪一位年轻女子。在“可骇女主持人”中,一位电影尖叫女王在接管电视脱口秀女主持人采访时获得的收益跨越了她的讨价讨价。“坏花”是一个自然活动的故事,而亨特报告了一个联邦观察局奸细在一个小镇观察一系列蛮横谋杀案的故事。
  1. Video
  2. ID                                       : 1
  3. Format                                   : AVC
  4. Format/Info                              : Advanced Video Codec
  5. Format profile                           : [email protected]
  6. Format settings                          : CABAC / 4 Ref Frames
  7. Format settings, CABAC                   : Yes
  8. Format settings, Reference frames        : 4 frames
  9. Codec ID                                 : V_MPEG4/ISO/AVC
  10. Duration                                 : 1 h 17 min
  11. Bit rate mode                            : Constant
  12. Bit rate                                 : 10 000 kb/s
  13. Width                                    : 1 920 pixels
  14. Height                                   : 1 080 pixels
  15. Display aspect ratio                     : 16:9
  16. Frame rate mode                          : Constant
  17. Frame rate                               : 29.970 (30000/1001) FPS
  18. Standard                                 : NTSC
  19. Color space                              : YUV
  20. Chroma subsampling                       : 4:2:0
  21. Bit depth                                : 8 bits
  22. Scan type                                : Progressive
  23. Bits/(Pixel*Frame)                       : 0.161
  24. Stream size                              : 5.32 GiB (99%)
  25. Default                                  : Yes
  26. Forced                                   : No
  27. Color range                              : Limited
  28. Color primaries                          : BT.709
  29. Transfer characteristics                 : BT.709
  30. Matrix coefficients                      : BT.709

  31. Audio
  32. ID                                       : 2
  33. Format                                   : AAC LC
  34. Format/Info                              : Advanced Audio Codec Low Complexity
  35. Codec ID                                 : A_AAC-2
  36. Duration                                 : 1 h 17 min
  37. Bit rate                                 : 125 kb/s
  38. Channel(s)                               : 2 channels
  39. Channel layout                           : L R
  40. Sampling rate                            : 48.0 kHz
  41. Frame rate                               : 46.875 FPS (1024 SPF)
  42. Compression mode                         : Lossy
  43. Stream size                              : 69.2 MiB (1%)
  44. Title                                    : English
  45. Language                                 : English
  46. Default                                  : Yes
  47. Forced                                   : No

  48. Text
  49. ID                                       : 3
  50. Format                                   : UTF-8
  51. Codec ID                                 : S_TEXT/UTF8
  52. Codec ID/Info                            : UTF-8 Plain Text
  53. Duration                                 : 1 h 16 min
  54. Bit rate                                 : 38 b/s
  55. Count of elements                        : 933
  56. Stream size                              : 21.8 KiB (0%)
  57. Title                                    : English [SDH]
  58. Language                                 : English
  59. Default                                  : No
  60. Forced                                   : No
复制代码

万圣节可骇故事 Halloween.Horror.Tales.2018.1080p.AMZN.WEBRip.AAC2.0.x264-CM 5.38GB-2.png 万圣节可骇故事 Halloween.Horror.Tales.2018.1080p.AMZN.WEBRip.AAC2.0.x264-CM 5.38GB-2.png 万圣节可骇故事 Halloween.Horror.Tales.2018.1080p.AMZN.WEBRip.AAC2.0.x264-CM 5.38GB-4.png






回复

使用道具 举报

懒得打字嘛,点击右侧快捷回复 【右侧内容,后台自定义】
您需要登录后才可以回帖 登录 | 立即加入

本版积分规则

Archiver|小黑屋| 蓝光电影网 |网站地图

Copyright © 2021 Comsenz Inc. Powered by 蓝光电影网

蓝光电影网

本站内容由用户自主分享和转载自互联网,转载目的在于传递更多信息,并不代表本网赞同其观点和对其真实性负责。

如有侵权、违反国家法律政策行为,请联系我们,我们会第一时间及时清除和处理!

举报反馈邮箱:[email protected]

快速回复 返回顶部 返回列表