找回密码

蓝光电影网

查看: 372|回复: 0

[剧情] 威廉·凯利的战争 William.Kellys.War.2014.1080p.WEB-DL.DD5.1.H264-FGT 3.79GB

[复制链接]
蓝光币
886
发表于 2020-2-2 12:16:19 | 显示全部楼层 |阅读模式
威廉·凯利的战争 William.Kellys.War.2014.1080p.WEB-DL.DD5.1.H264-FGT 3.79GB-1.png

译  名 威廉·凯利的战争
片  名 William Kelly's War
年  代 2014
产  地 澳大利亚
类  别 剧情 / 战争
语  言 英语
上映日期 2014-10-30(澳大利亚)
IMDb评分  6.4/10 from 350 users
IMDb链接  https://www.imdb.com/title/tt4149656
豆瓣评分 0/10 from 0 users
豆瓣链接 https://movie.douban.com/subject/27596350/
片  长 94分钟
导  演 Geoff Davis
编  剧 Mat Davis
主  演 Peter Berzanskis
       Maureen Alford
       Marie-Therese Bjornerud


简  介  

  暂无相关剧情先容
  1. Video
  2. ID                                       : 1
  3. Format                                   : AVC
  4. Format/Info                              : Advanced Video Codec
  5. Format profile                           : [email protected]
  6. Format settings                          : CABAC / 4 Ref Frames
  7. Format settings, CABAC                   : Yes
  8. Format settings, Reference frames        : 4 frames
  9. Codec ID                                 : V_MPEG4/ISO/AVC
  10. Duration                                 : 1 h 42 min
  11. Bit rate                                 : 4 778 kb/s
  12. Width                                    : 1 908 pixels
  13. Height                                   : 948 pixels
  14. Display aspect ratio                     : 2.013
  15. Frame rate mode                          : Constant
  16. Frame rate                               : 25.000 FPS
  17. Color space                              : YUV
  18. Chroma subsampling                       : 4:2:0
  19. Bit depth                                : 8 bits
  20. Scan type                                : Progressive
  21. Bits/(Pixel*Frame)                       : 0.106
  22. Stream size                              : 3.44 GiB (91%)
  23. Title                                    : William.Kellys.War.2014.1080p.WEB-DL.DD5.1.H264-FGT
  24. Language                                 : English
  25. Default                                  : Yes
  26. Forced                                   : No
  27. Color range                              : Limited
  28. Color primaries                          : BT.709
  29. Transfer characteristics                 : BT.709
  30. Matrix coefficients                      : BT.709

  31. Audio
  32. ID                                       : 2
  33. Format                                   : AC-3
  34. Format/Info                              : Audio Coding 3
  35. Commercial name                          : Dolby Digital
  36. Codec ID                                 : A_AC3
  37. Duration                                 : 1 h 42 min
  38. Bit rate mode                            : Constant
  39. Bit rate                                 : 384 kb/s
  40. Channel(s)                               : 6 channels
  41. Channel layout                           : L R C LFE Ls Rs
  42. Sampling rate                            : 48.0 kHz
  43. Frame rate                               : 31.250 FPS (1536 SPF)
  44. Compression mode                         : Lossy
  45. Stream size                              : 283 MiB (7%)
  46. Title                                    : William.Kellys.War.2014.1080p.WEB-DL.DD5.1.H264-FGT
  47. Language                                 : English
  48. Service kind                             : Complete Main
  49. Default                                  : Yes
  50. Forced                                   : No

  51. Menu
  52. 00:00:00.000                             : en:1
  53. 00:09:22.000                             : en:2
  54. 00:19:24.000                             : en:3
  55. 00:33:16.000                             : en:4
  56. 00:48:02.000                             : en:5
  57. 01:04:24.000                             : en:6
  58. 01:24:47.000                             : en:7
  59. 01:39:24.000                             : en:8
复制代码

威廉·凯利的战争 William.Kellys.War.2014.1080p.WEB-DL.DD5.1.H264-FGT 3.79GB-2.png 威廉·凯利的战争 William.Kellys.War.2014.1080p.WEB-DL.DD5.1.H264-FGT 3.79GB-3.png 威廉·凯利的战争 William.Kellys.War.2014.1080p.WEB-DL.DD5.1.H264-FGT 3.79GB-4.png 威廉·凯利的战争 William.Kellys.War.2014.1080p.WEB-DL.DD5.1.H264-FGT 3.79GB-5.png 威廉·凯利的战争 William.Kellys.War.2014.1080p.WEB-DL.DD5.1.H264-FGT 3.79GB-6.png 威廉·凯利的战争 William.Kellys.War.2014.1080p.WEB-DL.DD5.1.H264-FGT 3.79GB-7.png






回复

使用道具 举报

懒得打字嘛,点击右侧快捷回复 【右侧内容,后台自定义】
您需要登录后才可以回帖 登录 | 立即加入

本版积分规则

Archiver|小黑屋| 蓝光电影网 |网站地图

Copyright © 2021 Comsenz Inc. Powered by 蓝光电影网

蓝光电影网

本站内容由用户自主分享和转载自互联网,转载目的在于传递更多信息,并不代表本网赞同其观点和对其真实性负责。

如有侵权、违反国家法律政策行为,请联系我们,我们会第一时间及时清除和处理!

举报反馈邮箱:[email protected]

快速回复 返回顶部 返回列表