找回密码

蓝光电影网

查看: 163|回复: 0

[剧情] 流浪的惠勒 Wheeler.2017.1080p.WEB-DL.DD5.1.H264-FGT 3.93GB

[复制链接]
蓝光币
886
发表于 2020-2-2 12:17:40 | 显示全部楼层 |阅读模式
流浪的惠勒 Wheeler.2017.1080p.WEB-DL.DD5.1.H264-FGT 3.93GB-1.png

译  名 流浪的惠勒
片  名 Wheeler
年  代 2017
产  地 美国
类  别 剧情
语  言 英语
上映日期 2017-02-03(美国)
IMDb评分  5.9/10 from 371 users
IMDb链接  https://www.imdb.com/title/tt6290736
豆瓣评分 0/10 from 0 users
豆瓣链接 https://movie.douban.com/subject/26934972/
片  长 100分钟
导  演 Ryan Ross
编  剧 斯蒂芬·多尔夫 Stephen Dorff / Ryan Ross
主  演 斯蒂芬·多尔夫 Stephen Dorff
       克里斯·克里斯托佛森 Kris Kristofferson
       Audrey Spillman
       Bobby Tomberlin
       Bart Herbison
       Jim Norman
       Travis Meadows
       Anastasia Munoz
       Josh Adelstein
       William Todd Austin
       Dossett March


标  签 美国 | 音乐 | 剧情 | 伪记录 | 2017

简  介  

  WHEELER is the story of an aspiring musician from Kaufman, Texas who travels to Nashville with the lifelong dream of trying his hand at country music. By embodying the title character under prosthetic make up, actor Stephen Dorff successfully infiltrates Music City and takes his character on an authentic singer / songwriter journey. With the help of key allies on the ground, "Wheeler" converses with real people in real locations, with every musical number performed live. The line between reality and fiction blurs as Wheeler chases his dream in this touching tribute to old school country legends.
  1. Video
  2. ID                                       : 1
  3. Format                                   : AVC
  4. Format/Info                              : Advanced Video Codec
  5. Format profile                           : [email protected]
  6. Format settings                          : CABAC / 4 Ref Frames
  7. Format settings, CABAC                   : Yes
  8. Format settings, Reference frames        : 4 frames
  9. Codec ID                                 : V_MPEG4/ISO/AVC
  10. Duration                                 : 1 h 40 min
  11. Bit rate                                 : 5 099 kb/s
  12. Width                                    : 1 920 pixels
  13. Height                                   : 1 036 pixels
  14. Display aspect ratio                     : 1.85:1
  15. Frame rate mode                          : Constant
  16. Frame rate                               : 23.976 FPS
  17. Color space                              : YUV
  18. Chroma subsampling                       : 4:2:0
  19. Bit depth                                : 8 bits
  20. Scan type                                : Progressive
  21. Bits/(Pixel*Frame)                       : 0.107
  22. Stream size                              : 3.58 GiB (91%)
  23. Title                                    : Wheeler.2017.1080p.WEB-DL.DD5.1.H264-FGT
  24. Language                                 : English
  25. Default                                  : Yes
  26. Forced                                   : No
  27. Color range                              : Limited
  28. Color primaries                          : BT.709
  29. Transfer characteristics                 : BT.709
  30. Matrix coefficients                      : BT.709

  31. Audio
  32. ID                                       : 2
  33. Format                                   : AC-3
  34. Format/Info                              : Audio Coding 3
  35. Commercial name                          : Dolby Digital
  36. Codec ID                                 : A_AC3
  37. Duration                                 : 1 h 40 min
  38. Bit rate mode                            : Constant
  39. Bit rate                                 : 384 kb/s
  40. Channel(s)                               : 6 channels
  41. Channel layout                           : L R C LFE Ls Rs
  42. Sampling rate                            : 48.0 kHz
  43. Frame rate                               : 31.250 FPS (1536 SPF)
  44. Compression mode                         : Lossy
  45. Stream size                              : 276 MiB (7%)
  46. Title                                    : Wheeler.2017.1080p.WEB-DL.DD5.1.H264-FGT
  47. Language                                 : English
  48. Service kind                             : Complete Main
  49. Default                                  : Yes
  50. Forced                                   : No

  51. Text
  52. ID                                       : 3
  53. Format                                   : UTF-8
  54. Codec ID                                 : S_TEXT/UTF8
  55. Codec ID/Info                            : UTF-8 Plain Text
  56. Language                                 : English
  57. Default                                  : Yes
  58. Forced                                   : No

  59. Menu
  60. 00:00:00.000                             : en:1
  61. 00:06:33.351                             : en:2
  62. 00:13:43.906                             : en:3
  63. 00:18:37.032                             : en:4
  64. 00:25:11.301                             : en:5
  65. 00:31:50.158                             : en:6
  66. 00:37:00.801                             : en:7
  67. 00:40:27.507                             : en:8
  68. 00:47:54.537                             : en:9
  69. 00:54:12.164                             : en:10
  70. 00:59:26.061                             : en:11
  71. 01:06:53.508                             : en:12
  72. 01:10:46.616                             : en:13
  73. 01:21:00.146                             : en:14
  74. 01:25:11.605                             : en:15
  75. 01:30:40.600                             : en:16
复制代码

流浪的惠勒 Wheeler.2017.1080p.WEB-DL.DD5.1.H264-FGT 3.93GB-2.png 流浪的惠勒 Wheeler.2017.1080p.WEB-DL.DD5.1.H264-FGT 3.93GB-3.png 流浪的惠勒 Wheeler.2017.1080p.WEB-DL.DD5.1.H264-FGT 3.93GB-1.png 流浪的惠勒 Wheeler.2017.1080p.WEB-DL.DD5.1.H264-FGT 3.93GB-5.png 流浪的惠勒 Wheeler.2017.1080p.WEB-DL.DD5.1.H264-FGT 3.93GB-6.png 流浪的惠勒 Wheeler.2017.1080p.WEB-DL.DD5.1.H264-FGT 3.93GB-7.png






回复

使用道具 举报

懒得打字嘛,点击右侧快捷回复 【右侧内容,后台自定义】
您需要登录后才可以回帖 登录 | 立即加入

本版积分规则

Archiver|小黑屋| 蓝光电影网 |网站地图

Copyright © 2021 Comsenz Inc. Powered by 蓝光电影网

蓝光电影网

本站内容由用户自主分享和转载自互联网,转载目的在于传递更多信息,并不代表本网赞同其观点和对其真实性负责。

如有侵权、违反国家法律政策行为,请联系我们,我们会第一时间及时清除和处理!

举报反馈邮箱:[email protected]

快速回复 返回顶部 返回列表