找回密码

蓝光电影网

查看: 334|回复: 0

[喜剧] 兄弟会 Total.Frat.Movie.2016.1080p.WEB-DL.DD5.1.H264-FGT 3.60GB

[复制链接]
蓝光币
894
发表于 2020-2-2 12:22:40 | 显示全部楼层 |阅读模式
兄弟会 Total.Frat.Movie.2016.1080p.WEB-DL.DD5.1.H264-FGT 3.60GB-1.png

译  名 兄弟会
片  名 Total Frat Movie
年  代 2016
产  地 美国
类  别 笑剧
语  言 英语
上映日期 2016-09-23(美国)
IMDb评分  4.3/10 from 699 users
IMDb链接  https://www.imdb.com/title/tt3879074
豆瓣评分 0/10 from 0 users
豆瓣链接 https://movie.douban.com/subject/26824998/
片  长 93分钟
导  演 Warren P. Sonoda
编  剧 Stephen Fromkin / Sacha Pavlovic
主  演 尼克·贝特曼 Nick Bateman
       汤姆·格林 Tom Green
       贾斯汀·迪利 Justin Deeley
       乔恩·麦克拉伦 Jon McLaren
       杰米·约翰斯顿 Jamie Johnston
       Alexander Conti
       Ann Pirvu
       Andrew Jackson
       Alex House


标  签 笑剧 | 美国 | 校园 | 2016 | 剧情 | 美国电影 | 人性 | 三星

简  介  

  Charlie Martin, a JI whose fraternity gets kicked off campus after it takes the rap for a rival fraternity gone awry. Three years later, Charlie and the remaining brothers must throw the greatest rush event to recruit a new pledge class and bring the house back to [email protected]
  1. Video
  2. ID                                       : 1
  3. Format                                   : AVC
  4. Format/Info                              : Advanced Video Codec
  5. Format profile                           : [email protected]
  6. Format settings                          : CABAC / 4 Ref Frames
  7. Format settings, CABAC                   : Yes
  8. Format settings, Reference frames        : 4 frames
  9. Codec ID                                 : V_MPEG4/ISO/AVC
  10. Duration                                 : 1 h 33 min
  11. Bit rate                                 : 5 011 kb/s
  12. Width                                    : 1 912 pixels
  13. Height                                   : 1 072 pixels
  14. Display aspect ratio                     : 16:9
  15. Frame rate mode                          : Constant
  16. Frame rate                               : 23.976 FPS
  17. Color space                              : YUV
  18. Chroma subsampling                       : 4:2:0
  19. Bit depth                                : 8 bits
  20. Scan type                                : Progressive
  21. Bits/(Pixel*Frame)                       : 0.102
  22. Stream size                              : 3.28 GiB (91%)
  23. Title                                    : Total.Frat.Movie.2016.1080p.WEB-DL.DD5.1.H264-FGT
  24. Language                                 : English
  25. Default                                  : Yes
  26. Forced                                   : No
  27. Color range                              : Limited
  28. Color primaries                          : BT.709
  29. Transfer characteristics                 : BT.709
  30. Matrix coefficients                      : BT.709

  31. Audio
  32. ID                                       : 2
  33. Format                                   : AC-3
  34. Format/Info                              : Audio Coding 3
  35. Commercial name                          : Dolby Digital
  36. Codec ID                                 : A_AC3
  37. Duration                                 : 1 h 33 min
  38. Bit rate mode                            : Constant
  39. Bit rate                                 : 384 kb/s
  40. Channel(s)                               : 6 channels
  41. Channel layout                           : L R C LFE Ls Rs
  42. Sampling rate                            : 48.0 kHz
  43. Frame rate                               : 31.250 FPS (1536 SPF)
  44. Compression mode                         : Lossy
  45. Stream size                              : 257 MiB (7%)
  46. Title                                    : Total.Frat.Movie.2016.1080p.WEB-DL.DD5.1.H264-FGT
  47. Language                                 : English
  48. Service kind                             : Complete Main
  49. Default                                  : No
  50. Forced                                   : No

  51. Text
  52. ID                                       : 3
  53. Format                                   : UTF-8
  54. Codec ID                                 : S_TEXT/UTF8
  55. Codec ID/Info                            : UTF-8 Plain Text
  56. Language                                 : English
  57. Default                                  : Yes
  58. Forced                                   : No

  59. Menu
  60. 00:00:00.000                             : en:Chapter 1
  61. 00:13:49.788                             : en:Chapter 2
  62. 00:26:26.961                             : en:Chapter 3
  63. 00:38:16.628                             : en:Chapter 4
  64. 00:49:02.148                             : en:Chapter 5
  65. 01:00:06.519                             : en:Chapter 6
  66. 01:10:57.378                             : en:Chapter 7
  67. 01:21:07.196                             : en:Chapter 8
复制代码

兄弟会 Total.Frat.Movie.2016.1080p.WEB-DL.DD5.1.H264-FGT 3.60GB-2.png 兄弟会 Total.Frat.Movie.2016.1080p.WEB-DL.DD5.1.H264-FGT 3.60GB-3.png 兄弟会 Total.Frat.Movie.2016.1080p.WEB-DL.DD5.1.H264-FGT 3.60GB-4.png 兄弟会 Total.Frat.Movie.2016.1080p.WEB-DL.DD5.1.H264-FGT 3.60GB-5.png 兄弟会 Total.Frat.Movie.2016.1080p.WEB-DL.DD5.1.H264-FGT 3.60GB-6.png 兄弟会 Total.Frat.Movie.2016.1080p.WEB-DL.DD5.1.H264-FGT 3.60GB-7.png






回复

使用道具 举报

懒得打字嘛,点击右侧快捷回复 【右侧内容,后台自定义】
您需要登录后才可以回帖 登录 | 立即加入

本版积分规则

Archiver|小黑屋| 蓝光电影网 |网站地图

Copyright © 2021 Comsenz Inc. Powered by 蓝光电影网

蓝光电影网

本站内容由用户自主分享和转载自互联网,转载目的在于传递更多信息,并不代表本网赞同其观点和对其真实性负责。

如有侵权、违反国家法律政策行为,请联系我们,我们会第一时间及时清除和处理!

举报反馈邮箱:[email protected]

快速回复 返回顶部 返回列表