找回密码

蓝光电影网

查看: 279|回复: 0

[动画] 猫和老鼠:间谍使命/猫和老鼠:搜寻间谍 Tom.and.Jerry.Spy.Quest.2015.1080p.WEB-DL.DD5.1.H264-RARBG 2.89GB

[复制链接]
蓝光币
886
发表于 2020-2-2 12:23:49 | 显示全部楼层 |阅读模式
猫和老鼠:特务使命/猫和老鼠:搜寻特务 Tom.and.Jerry.Spy.Quest.2015.1080p.WEB-DL.DD5.1.H264-RARBG 2.89GB-1.png

译  名 猫和老鼠:特务使命 / 猫和老鼠:搜寻特务
片  名 Tom and Jerry: Spy Quest
年  代 2015
产  地 美国
类  别 动画
语  言 英语
上映日期 2015-06-09(美国)
IMDb评分  6.1/10 from 718 users
IMDb链接  https://www.imdb.com/title/tt4692656
豆瓣评分 5.9/10 from 1246 users
豆瓣链接 https://movie.douban.com/subject/26423179/
片  长 72分钟
导  演 Spike Brandt / Tony Cervone
编  剧 希思·科森 Heath Corson / 詹姆斯·克莉格 James Krieg
主  演 Reese Hartwig
       Arnie Pantoja
       詹姆斯·洪 James Hong


标  签 猫和老鼠 | 动画 | 美国 | 2015 | 笑剧 | 动画片 | 美国动画 | 动画长片

简  介  

  2015全新动感的华纳大动画电影——汤姆和杰瑞之特务使命。任何年龄的汤姆和杰瑞迷都不会想错过和汤姆和杰瑞一路去冒险,一路去拯救天下,一路踏上危险的特务使命。
  1. Video
  2. ID                                       : 1
  3. Format                                   : AVC
  4. Format/Info                              : Advanced Video Codec
  5. Format profile                           : [email protected]
  6. Format settings                          : CABAC / 4 Ref Frames
  7. Format settings, CABAC                   : Yes
  8. Format settings, Reference frames        : 4 frames
  9. Codec ID                                 : V_MPEG4/ISO/AVC
  10. Duration                                 : 1 h 12 min
  11. Bit rate                                 : 5 173 kb/s
  12. Width                                    : 1 912 pixels
  13. Height                                   : 1 072 pixels
  14. Display aspect ratio                     : 16:9
  15. Frame rate mode                          : Constant
  16. Frame rate                               : 23.976 FPS
  17. Color space                              : YUV
  18. Chroma subsampling                       : 4:2:0
  19. Bit depth                                : 8 bits
  20. Scan type                                : Progressive
  21. Bits/(Pixel*Frame)                       : 0.105
  22. Stream size                              : 2.63 GiB (91%)
  23. Title                                    : Tom.and.Jerry.Spy.Quest.2015.1080p.WEB-DL.DD5.1.H264-RARBG
  24. Language                                 : English
  25. Default                                  : Yes
  26. Forced                                   : No
  27. Color range                              : Limited
  28. Color primaries                          : BT.709
  29. Transfer characteristics                 : BT.709
  30. Matrix coefficients                      : BT.709

  31. Audio
  32. ID                                       : 2
  33. Format                                   : AC-3
  34. Format/Info                              : Audio Coding 3
  35. Commercial name                          : Dolby Digital
  36. Codec ID                                 : A_AC3
  37. Duration                                 : 1 h 12 min
  38. Bit rate mode                            : Constant
  39. Bit rate                                 : 384 kb/s
  40. Channel(s)                               : 6 channels
  41. Channel layout                           : L R C LFE Ls Rs
  42. Sampling rate                            : 48.0 kHz
  43. Frame rate                               : 31.250 FPS (1536 SPF)
  44. Compression mode                         : Lossy
  45. Stream size                              : 200 MiB (7%)
  46. Title                                    : Tom.and.Jerry.Spy.Quest.2015.1080p.WEB-DL.DD5.1.H264-RARBG
  47. Language                                 : English
  48. Service kind                             : Complete Main
  49. Default                                  : Yes
  50. Forced                                   : No

  51. Menu
  52. 00:00:00.000                             : en:1
  53. 00:07:45.000                             : en:2
  54. 00:13:51.000                             : en:3
  55. 00:20:37.000                             : en:4
  56. 00:27:31.000                             : en:5
  57. 00:34:56.000                             : en:6
  58. 00:39:26.000                             : en:7
  59. 00:45:32.000                             : en:8
  60. 00:54:51.000                             : en:9
  61. 01:01:04.000                             : en:10
  62. 01:05:46.000                             : en:11
  63. 01:10:06.000                             : en:12
复制代码

猫和老鼠:特务使命/猫和老鼠:搜寻特务 Tom.and.Jerry.Spy.Quest.2015.1080p.WEB-DL.DD5.1.H264-RARBG 2.89GB-2.png 猫和老鼠:特务使命/猫和老鼠:搜寻特务 Tom.and.Jerry.Spy.Quest.2015.1080p.WEB-DL.DD5.1.H264-RARBG 2.89GB-3.png 猫和老鼠:特务使命/猫和老鼠:搜寻特务 Tom.and.Jerry.Spy.Quest.2015.1080p.WEB-DL.DD5.1.H264-RARBG 2.89GB-4.png 猫和老鼠:特务使命/猫和老鼠:搜寻特务 Tom.and.Jerry.Spy.Quest.2015.1080p.WEB-DL.DD5.1.H264-RARBG 2.89GB-5.png 猫和老鼠:特务使命/猫和老鼠:搜寻特务 Tom.and.Jerry.Spy.Quest.2015.1080p.WEB-DL.DD5.1.H264-RARBG 2.89GB-1.png 猫和老鼠:特务使命/猫和老鼠:搜寻特务 Tom.and.Jerry.Spy.Quest.2015.1080p.WEB-DL.DD5.1.H264-RARBG 2.89GB-7.png






回复

使用道具 举报

懒得打字嘛,点击右侧快捷回复 【右侧内容,后台自定义】
您需要登录后才可以回帖 登录 | 立即加入

本版积分规则

Archiver|小黑屋| 蓝光电影网 |网站地图

Copyright © 2021 Comsenz Inc. Powered by 蓝光电影网

蓝光电影网

本站内容由用户自主分享和转载自互联网,转载目的在于传递更多信息,并不代表本网赞同其观点和对其真实性负责。

如有侵权、违反国家法律政策行为,请联系我们,我们会第一时间及时清除和处理!

举报反馈邮箱:[email protected]

快速回复 返回顶部 返回列表