找回密码

蓝光电影网

查看: 270|回复: 0

[剧情] 幸运者 The.Lucky.Man.2018.1080p.WEB-DL.DD5.1.H264-FGT 3.77GB

[复制链接]
蓝光币
1022
发表于 2020-2-2 12:26:18 | 显示全部楼层 |阅读模式
荣幸者 The.Lucky.Man.2018.1080p.WEB-DL.DD5.1.H264-FGT 3.77GB-1.png

译  名 荣幸者
片  名 The Lucky Man
年  代 2018
产  地 美国
类  别 剧情 / 行动
语  言 英语
上映日期 2018-01-16(美国)
IMDb评分  5.6/10 from 1710 users
IMDb链接  https://www.imdb.com/title/tt3458760
豆瓣评分 0/10 from 0 users
豆瓣链接 https://movie.douban.com/subject/26358180/
片  长 98分钟
导  演 Norman Gregory McGuire
编  剧 Norman Gregory McGuire
主  演 玛丽安娜·宝拉·韦森特 Mariana Paola Vicente
       布拉德·霍金斯 Brad Hawkins
       Jesse James
       Burton Gilliam
       Larry Jack Dotson


简  介  

  A young charismatic preacher and his hot Latina girlfriend travel Route 66 scamming the small churches along the way only to find that the bogus healing powers he portrays become real. The healing powers serve as a blessing and a curse.
  1. Video
  2. ID                                       : 1
  3. Format                                   : AVC
  4. Format/Info                              : Advanced Video Codec
  5. Format profile                           : [email protected]
  6. Format settings                          : CABAC / 4 Ref Frames
  7. Format settings, CABAC                   : Yes
  8. Format settings, Reference frames        : 4 frames
  9. Codec ID                                 : V_MPEG4/ISO/AVC
  10. Duration                                 : 1 h 36 min
  11. Bit rate                                 : 5 211 kb/s
  12. Width                                    : 1 912 pixels
  13. Height                                   : 1 072 pixels
  14. Display aspect ratio                     : 16:9
  15. Frame rate mode                          : Constant
  16. Frame rate                               : 23.976 (24000/1001) FPS
  17. Color space                              : YUV
  18. Chroma subsampling                       : 4:2:0
  19. Bit depth                                : 8 bits
  20. Scan type                                : Progressive
  21. Bits/(Pixel*Frame)                       : 0.106
  22. Stream size                              : 3.51 GiB (93%)
  23. Title                                    : The.Lucky.Man.2018.1080p.WEB-DL.DD5.1.H264-FGT
  24. Language                                 : English
  25. Default                                  : Yes
  26. Forced                                   : No
  27. Color range                              : Limited
  28. Color primaries                          : BT.709
  29. Transfer characteristics                 : BT.709
  30. Matrix coefficients                      : BT.709

  31. Audio
  32. ID                                       : 2
  33. Format                                   : AC-3
  34. Format/Info                              : Audio Coding 3
  35. Commercial name                          : Dolby Digital
  36. Codec ID                                 : A_AC3
  37. Duration                                 : 1 h 36 min
  38. Bit rate mode                            : Constant
  39. Bit rate                                 : 384 kb/s
  40. Channel(s)                               : 6 channels
  41. Channel layout                           : L R C LFE Ls Rs
  42. Sampling rate                            : 48.0 kHz
  43. Frame rate                               : 31.250 FPS (1536 SPF)
  44. Compression mode                         : Lossy
  45. Stream size                              : 265 MiB (7%)
  46. Title                                    : The.Lucky.Man.2018.1080p.WEB-DL.DD5.1.H264-FGT
  47. Language                                 : English
  48. Service kind                             : Complete Main
  49. Default                                  : Yes
  50. Forced                                   : No

  51. Menu
  52. 00:00:00.000                             : en:1
  53. 00:10:24.000                             : en:2
  54. 00:20:02.000                             : en:3
  55. 00:29:32.000                             : en:4
  56. 00:40:12.000                             : en:5
  57. 00:47:33.000                             : en:6
  58. 01:01:44.000                             : en:7
  59. 01:11:45.000                             : en:8
  60. 01:21:30.000                             : en:9
  61. 01:29:29.000                             : en:10
复制代码

荣幸者 The.Lucky.Man.2018.1080p.WEB-DL.DD5.1.H264-FGT 3.77GB-2.png 荣幸者 The.Lucky.Man.2018.1080p.WEB-DL.DD5.1.H264-FGT 3.77GB-3.png 荣幸者 The.Lucky.Man.2018.1080p.WEB-DL.DD5.1.H264-FGT 3.77GB-4.png 荣幸者 The.Lucky.Man.2018.1080p.WEB-DL.DD5.1.H264-FGT 3.77GB-5.png 荣幸者 The.Lucky.Man.2018.1080p.WEB-DL.DD5.1.H264-FGT 3.77GB-6.png 荣幸者 The.Lucky.Man.2018.1080p.WEB-DL.DD5.1.H264-FGT 3.77GB-7.png






回复

使用道具 举报

懒得打字嘛,点击右侧快捷回复 【右侧内容,后台自定义】
您需要登录后才可以回帖 登录 | 立即加入

本版积分规则

Archiver|小黑屋| 蓝光电影网 |网站地图

Copyright © 2021 Comsenz Inc. Powered by 蓝光电影网

蓝光电影网

本站内容由用户自主分享和转载自互联网,转载目的在于传递更多信息,并不代表本网赞同其观点和对其真实性负责。

如有侵权、违反国家法律政策行为,请联系我们,我们会第一时间及时清除和处理!

举报反馈邮箱:[email protected]

快速回复 返回顶部 返回列表