找回密码

蓝光电影网

查看: 155|回复: 0

[剧情] 荣誉榜 The.Honor.List.2018.1080p.WEB-DL.DD5.1.H264-FGT 3.61GB

[复制链接]
蓝光币
886
发表于 2020-2-2 12:27:35 | 显示全部楼层 |阅读模式
声誉榜 The.Honor.List.2018.1080p.WEB-DL.DD5.1.H264-FGT 3.61GB-1.png

译  名 声誉榜
片  名 The Honor List
年  代 2018
产  地 美国
类  别 剧情
语  言 英语
上映日期 2018-05-11(美国)
IMDb评分  5.5/10 from 490 users
IMDb链接  https://www.imdb.com/title/tt7237666
豆瓣评分 6.1/10 from 105 users
豆瓣链接 https://movie.douban.com/subject/30153022/
片  长 103分钟
导  演 艾丽莎·唐恩 Elissa Down
编  剧 Marilyn Fu
主  演 梅根·瑞恩科斯 Meghan Rienks
       萨莎·皮特丝 Sasha Pieterse
       卡鲁切·特兰 Karrueche Tran
       赵雅顿 Arden Cho
       劳伦·维德曼 Lauren Weedman
       伊森·派克 Ethan Peck
       克里斯·梅森 Chris Mason
       谢拉·麦克康米克 Sierra McCormick
       克里斯蒂娜·张 Christina Chang
       麦迪森·劳勒 Madison Lawlor
       Graham Sibley
       Jared Day
       Reina Hardesty
       Alex Rich
       Elizabeth Stillwell


标  签 青春 | 美国 | 剧情 | 友谊 | 2018 | 美国电影 | 长大 | 电影

简  介  

  At the start of high school, Piper, Sophie, Isabella and Honor think they will be best friends forever, so they sink a time capsule in the lake with a list of things they want to do before graduation. By senior year, they have gone their separate ways. Piper has turned into the class clown, party girl who never passes up a drink. Sophie pledges to stay a virgin until she is married and has created a purity app. Isabella is the feminist femme fatale who's the editor of a zine. And Honor is the pride and joy of the community. Her dream of being a professional ballerina is taking off. But when tragedy strikes, the former BFFs must reunite, break open the capsule and complete the pre-graduation bucket list.
  1. Video
  2. ID                                       : 1
  3. Format                                   : AVC
  4. Format/Info                              : Advanced Video Codec
  5. Format profile                           : [email protected]
  6. Format settings                          : CABAC / 5 Ref Frames
  7. Format settings, CABAC                   : Yes
  8. Format settings, Reference frames        : 5 frames
  9. Codec ID                                 : V_MPEG4/ISO/AVC
  10. Duration                                 : 1 h 43 min
  11. Bit rate                                 : 4 594 kb/s
  12. Width                                    : 1 912 pixels
  13. Height                                   : 792 pixels
  14. Display aspect ratio                     : 2.40:1
  15. Frame rate mode                          : Constant
  16. Frame rate                               : 23.976 (24000/1001) FPS
  17. Color space                              : YUV
  18. Chroma subsampling                       : 4:2:0
  19. Bit depth                                : 8 bits
  20. Scan type                                : Progressive
  21. Bits/(Pixel*Frame)                       : 0.127
  22. Stream size                              : 3.33 GiB (92%)
  23. Title                                    : The.Honor.List.2018.WEB-DL.DD5.1.H264-FGT
  24. Language                                 : English
  25. Default                                  : Yes
  26. Forced                                   : No
  27. Color range                              : Limited
  28. Color primaries                          : BT.709
  29. Transfer characteristics                 : BT.709
  30. Matrix coefficients                      : BT.709

  31. Audio
  32. ID                                       : 2
  33. Format                                   : AC-3
  34. Format/Info                              : Audio Coding 3
  35. Commercial name                          : Dolby Digital
  36. Codec ID                                 : A_AC3
  37. Duration                                 : 1 h 43 min
  38. Bit rate mode                            : Constant
  39. Bit rate                                 : 384 kb/s
  40. Channel(s)                               : 6 channels
  41. Channel layout                           : L R C LFE Ls Rs
  42. Sampling rate                            : 48.0 kHz
  43. Frame rate                               : 31.250 FPS (1536 SPF)
  44. Compression mode                         : Lossy
  45. Stream size                              : 285 MiB (8%)
  46. Title                                    : The.Honor.List.2018.WEB-DL.DD5.1.H264-FGT
  47. Language                                 : English
  48. Service kind                             : Complete Main
  49. Default                                  : Yes
  50. Forced                                   : No

  51. Text
  52. ID                                       : 3
  53. Format                                   : UTF-8
  54. Codec ID                                 : S_TEXT/UTF8
  55. Codec ID/Info                            : UTF-8 Plain Text
  56. Duration                                 : 1 h 43 min
  57. Bit rate                                 : 67 b/s
  58. Count of elements                        : 1729
  59. Stream size                              : 50.9 KiB (0%)
  60. Language                                 : English
  61. Default                                  : Yes
  62. Forced                                   : No

  63. Menu
  64. 00:00:00.000                             : en:1
  65. 00:02:20.000                             : en:2
  66. 00:12:45.000                             : en:3
  67. 00:23:08.000                             : en:4
  68. 00:33:19.000                             : en:5
  69. 00:44:12.000                             : en:6
  70. 00:56:29.000                             : en:7
  71. 01:06:18.000                             : en:8
  72. 01:13:47.000                             : en:9
  73. 01:20:15.000                             : en:10
  74. 01:30:18.000                             : en:11
  75. 01:38:15.000                             : en:12
复制代码

声誉榜 The.Honor.List.2018.1080p.WEB-DL.DD5.1.H264-FGT 3.61GB-1.png 声誉榜 The.Honor.List.2018.1080p.WEB-DL.DD5.1.H264-FGT 3.61GB-3.png 声誉榜 The.Honor.List.2018.1080p.WEB-DL.DD5.1.H264-FGT 3.61GB-4.png






回复

使用道具 举报

懒得打字嘛,点击右侧快捷回复 【右侧内容,后台自定义】
您需要登录后才可以回帖 登录 | 立即加入

本版积分规则

Archiver|小黑屋| 蓝光电影网 |网站地图

Copyright © 2021 Comsenz Inc. Powered by 蓝光电影网

蓝光电影网

本站内容由用户自主分享和转载自互联网,转载目的在于传递更多信息,并不代表本网赞同其观点和对其真实性负责。

如有侵权、违反国家法律政策行为,请联系我们,我们会第一时间及时清除和处理!

举报反馈邮箱:[email protected]

快速回复 返回顶部 返回列表