找回密码

蓝光电影网

查看: 1174|回复: 2

[动画] 泰山2/人猿泰山2 Tarzan.II.2005.1080p.WEB-DL.DD5.1.H264-LCDS 2.79GB

[复制链接]
蓝光币
886
发表于 2020-2-2 12:28:52 | 显示全部楼层 |阅读模式
泰山2/人猿泰山2 Tarzan.II.2005.1080p.WEB-DL.DD5.1.H264-LCDS 2.79GB-1.png

译  名 泰山2 / 人猿泰山2
片  名 Tarzan II
年  代 2005
产  地 美国
类  别 动画 / 家庭 / 冒险
语  言 英语
上映日期 2005-06-14
IMDb评分  5.6/10 from 8824 users
IMDb链接  https://www.imdb.com/title/tt0437503
豆瓣评分 7.2/10 from 1908 users
豆瓣链接 https://movie.douban.com/subject/1420038/
片  长 72分钟
导  演 Brian Smith

标  签 动画 | 迪斯尼 | 美国 | Disney | 泰山 | 动画片 | 2005 | 美国电影

简  介  

  泰山(Harrison Chad 配音)年幼时和母亲卡拉(格伦·克洛斯 Glenn Close 配音)过着相依为命的生活,由于其人类的表面和特别的身份,泰山遭到了本家人猿们的轻视和欺侮,只要塔克(Brenda Grate 配音)愿意当他的好朋友。在孤独当中泰山渐渐长大,他的心里非常期望可以获得人猿们的认可和必定。
  一场意外的发生让泰山意想到,自己永久也没法融入到族群当中,哀痛而又愤慨的他挑选了离家出走,相逢了离群索居的三只猩猩,在它们的身上,泰山终究感遭到了被信赖和信赖他人的感受。传闻中,无人涉足的黄山当中居住着可怕的怪物,而在机遇偶合之下,这只神出鬼没的怪物和泰山相遇了。

获奖情况  

  第33届动画安妮奖(2006)
  最好特别动画(提名)
  1. Video
  2. ID                                       : 1
  3. Format                                   : AVC
  4. Format/Info                              : Advanced Video Codec
  5. Format profile                           : [email protected]
  6. Format settings                          : CABAC / 4 Ref Frames
  7. Format settings, CABAC                   : Yes
  8. Format settings, Reference frames        : 4 frames
  9. Codec ID                                 : V_MPEG4/ISO/AVC
  10. Duration                                 : 1 h 11 min
  11. Bit rate                                 : 5 210 kb/s
  12. Width                                    : 1 912 pixels
  13. Height                                   : 1 072 pixels
  14. Display aspect ratio                     : 16:9
  15. Frame rate mode                          : Constant
  16. Frame rate                               : 23.976 (24000/1001) FPS
  17. Color space                              : YUV
  18. Chroma subsampling                       : 4:2:0
  19. Bit depth                                : 8 bits
  20. Scan type                                : Progressive
  21. Bits/(Pixel*Frame)                       : 0.106
  22. Stream size                              : 2.60 GiB (93%)
  23. Default                                  : Yes
  24. Forced                                   : No
  25. Color range                              : Limited
  26. Color primaries                          : BT.709
  27. Transfer characteristics                 : BT.709
  28. Matrix coefficients                      : BT.709

  29. Audio
  30. ID                                       : 2
  31. Format                                   : AC-3
  32. Format/Info                              : Audio Coding 3
  33. Commercial name                          : Dolby Digital
  34. Codec ID                                 : A_AC3
  35. Duration                                 : 1 h 11 min
  36. Bit rate mode                            : Constant
  37. Bit rate                                 : 384 kb/s
  38. Channel(s)                               : 6 channels
  39. Channel layout                           : L R C LFE Ls Rs
  40. Sampling rate                            : 48.0 kHz
  41. Frame rate                               : 31.250 FPS (1536 SPF)
  42. Compression mode                         : Lossy
  43. Stream size                              : 195 MiB (7%)
  44. Title                                    : English AC3 5.1
  45. Language                                 : English
  46. Service kind                             : Complete Main
  47. Default                                  : Yes
  48. Forced                                   : No

  49. Text
  50. ID                                       : 3
  51. Format                                   : UTF-8
  52. Codec ID                                 : S_TEXT/UTF8
  53. Codec ID/Info                            : UTF-8 Plain Text
  54. Duration                                 : 1 h 7 min
  55. Bit rate                                 : 53 b/s
  56. Count of elements                        : 1000
  57. Stream size                              : 26.5 KiB (0%)
  58. Title                                    : English SRT
  59. Language                                 : English
  60. Default                                  : No
  61. Forced                                   : No

  62. Menu
  63. 00:00:00.000                             : en:Opening Titles / "Son of Man"
  64. 00:07:16.000                             : en:Family Tree
  65. 00:12:00.000                             : en:Alone / "Leaving Home"
  66. 00:19:48.000                             : en:Escaping the Zugor
  67. 00:24:07.000                             : en:Secret Revealed
  68. 00:28:36.000                             : en:Searching for Tarzan
  69. 00:33:44.000                             : en:We Found a Gorilla
  70. 00:41:58.000                             : en:I'm a Zugor
  71. 00:46:09.000                             : en:Betrayed
  72. 00:52:50.000                             : en:Bullies
  73. 00:54:41.000                             : en:Rescue
  74. 01:00:15.000                             : en:End Credits / "Who am I?"
复制代码

泰山2/人猿泰山2 Tarzan.II.2005.1080p.WEB-DL.DD5.1.H264-LCDS 2.79GB-2.png 泰山2/人猿泰山2 Tarzan.II.2005.1080p.WEB-DL.DD5.1.H264-LCDS 2.79GB-3.png 泰山2/人猿泰山2 Tarzan.II.2005.1080p.WEB-DL.DD5.1.H264-LCDS 2.79GB-4.png 泰山2/人猿泰山2 Tarzan.II.2005.1080p.WEB-DL.DD5.1.H264-LCDS 2.79GB-5.png 泰山2/人猿泰山2 Tarzan.II.2005.1080p.WEB-DL.DD5.1.H264-LCDS 2.79GB-6.png 泰山2/人猿泰山2 Tarzan.II.2005.1080p.WEB-DL.DD5.1.H264-LCDS 2.79GB-7.png






回复

使用道具 举报

蓝光币
1
发表于 2021-1-21 12:32:19 | 显示全部楼层
很不错的片子,下来给孩子看看
回复 支持 反对

使用道具 举报

懒得打字嘛,点击右侧快捷回复 【右侧内容,后台自定义】
您需要登录后才可以回帖 登录 | 立即加入

本版积分规则

Archiver|小黑屋| 蓝光电影网 |网站地图

Copyright © 2021 Comsenz Inc. Powered by 蓝光电影网

蓝光电影网

本站内容由用户自主分享和转载自互联网,转载目的在于传递更多信息,并不代表本网赞同其观点和对其真实性负责。

如有侵权、违反国家法律政策行为,请联系我们,我们会第一时间及时清除和处理!

举报反馈邮箱:[email protected]

快速回复 返回顶部 返回列表