找回密码

蓝光电影网

查看: 325|回复: 0

[喜剧] 聪明小鬼 Smartass.2017.1080p.WEB-DL.DD5.1.H264-FGT 3.12GB

[复制链接]
蓝光币
1020
发表于 2020-2-2 12:30:04 | 显示全部楼层 |阅读模式
聪明小鬼 Smartass.2017.1080p.WEB-DL.DD5.1.H264-FGT 3.12GB-1.png

译  名 聪明小鬼
片  名 Smartass
年  代 2017
产  地 美国
类  别 笑剧 / 可骇
语  言 英语
上映日期 2017-09-12(美国)
IMDb评分  4.6/10 from 484 users
IMDb链接  https://www.imdb.com/title/tt4513538
豆瓣评分 0/10 from 0 users
豆瓣链接 https://movie.douban.com/subject/26754271/
片  长 90分钟
导  演 Jena Serbu
编  剧 Jena Serbu
主  演 乔伊·金 Joey King
       卢克·帕斯夸尼洛 Luke Pasqualino
       罗南·鲁宾斯坦 Ronen Rubinstein


标  签 青春 | 美国 | 待下载 | 乔伊·金 | 2017

简  介  

  A 15 year old girl becomes intimately acquainted to a town in California after being released from prison.
  1. Video
  2. ID                                       : 1
  3. Format                                   : AVC
  4. Format/Info                              : Advanced Video Codec
  5. Format profile                           : [email protected]
  6. Format settings                          : CABAC / 5 Ref Frames
  7. Format settings, CABAC                   : Yes
  8. Format settings, Reference frames        : 5 frames
  9. Codec ID                                 : V_MPEG4/ISO/AVC
  10. Duration                                 : 1 h 30 min
  11. Bit rate                                 : 4 555 kb/s
  12. Width                                    : 1 920 pixels
  13. Height                                   : 792 pixels
  14. Display aspect ratio                     : 2.40:1
  15. Frame rate mode                          : Constant
  16. Frame rate                               : 24.000 FPS
  17. Color space                              : YUV
  18. Chroma subsampling                       : 4:2:0
  19. Bit depth                                : 8 bits
  20. Scan type                                : Progressive
  21. Bits/(Pixel*Frame)                       : 0.125
  22. Stream size                              : 2.87 GiB (92%)
  23. Title                                    : Smartass.2017.1080p.WEB-DL.DD5.1.H264-FGT
  24. Language                                 : English
  25. Default                                  : Yes
  26. Forced                                   : No
  27. Color range                              : Limited
  28. Color primaries                          : BT.709
  29. Transfer characteristics                 : BT.709
  30. Matrix coefficients                      : BT.709

  31. Audio
  32. ID                                       : 2
  33. Format                                   : AC-3
  34. Format/Info                              : Audio Coding 3
  35. Commercial name                          : Dolby Digital
  36. Codec ID                                 : A_AC3
  37. Duration                                 : 1 h 30 min
  38. Bit rate mode                            : Constant
  39. Bit rate                                 : 384 kb/s
  40. Channel(s)                               : 6 channels
  41. Channel layout                           : L R C LFE Ls Rs
  42. Sampling rate                            : 48.0 kHz
  43. Frame rate                               : 31.250 FPS (1536 SPF)
  44. Compression mode                         : Lossy
  45. Stream size                              : 248 MiB (8%)
  46. Title                                    : Smartass.2017.1080p.WEB-DL.DD5.1.H264-FGT
  47. Language                                 : English
  48. Service kind                             : Complete Main
  49. Default                                  : Yes
  50. Forced                                   : No

  51. Text
  52. ID                                       : 3
  53. Format                                   : UTF-8
  54. Codec ID                                 : S_TEXT/UTF8
  55. Codec ID/Info                            : UTF-8 Plain Text
  56. Duration                                 : 1 h 29 min
  57. Bit rate                                 : 72 b/s
  58. Count of elements                        : 1853
  59. Stream size                              : 47.6 KiB (0%)
  60. Language                                 : English
  61. Default                                  : Yes
  62. Forced                                   : No

  63. Menu
  64. 00:00:00.000                             : en:Opening Sequence
  65. 00:06:07.000                             : en:I Can Explain
  66. 00:11:29.000                             : en:Is She Dead?
  67. 00:17:16.000                             : en:I'm Not Coming Home
  68. 00:22:37.000                             : en:Bring Something For Chuchu
  69. 00:30:03.000                             : en:Nobody Likes A Punk
  70. 00:35:52.000                             : en:That's Seriously Mortifying
  71. 00:41:02.000                             : en:Too Tired To Die
  72. 00:48:20.000                             : en:You're Being Paranoid
  73. 00:52:45.000                             : en:What's In San Diego?
  74. 00:58:00.000                             : en:Check This Fool Out
  75. 01:05:15.000                             : en:Where's The Money?
  76. 01:10:30.000                             : en:It's Good Stuff, Man
  77. 01:15:32.000                             : en:Mickey's Getting Robbed
  78. 01:22:00.000                             : en:The Victims
  79. 01:27:33.000                             : en:End Credits
复制代码

聪明小鬼 Smartass.2017.1080p.WEB-DL.DD5.1.H264-FGT 3.12GB-2.png 聪明小鬼 Smartass.2017.1080p.WEB-DL.DD5.1.H264-FGT 3.12GB-3.png 聪明小鬼 Smartass.2017.1080p.WEB-DL.DD5.1.H264-FGT 3.12GB-4.png 聪明小鬼 Smartass.2017.1080p.WEB-DL.DD5.1.H264-FGT 3.12GB-5.png 聪明小鬼 Smartass.2017.1080p.WEB-DL.DD5.1.H264-FGT 3.12GB-6.png 聪明小鬼 Smartass.2017.1080p.WEB-DL.DD5.1.H264-FGT 3.12GB-7.png






回复

使用道具 举报

懒得打字嘛,点击右侧快捷回复 【右侧内容,后台自定义】
您需要登录后才可以回帖 登录 | 立即加入

本版积分规则

Archiver|小黑屋| 蓝光电影网 |网站地图

Copyright © 2021 Comsenz Inc. Powered by 蓝光电影网

蓝光电影网

本站内容由用户自主分享和转载自互联网,转载目的在于传递更多信息,并不代表本网赞同其观点和对其真实性负责。

如有侵权、违反国家法律政策行为,请联系我们,我们会第一时间及时清除和处理!

举报反馈邮箱:[email protected]

快速回复 返回顶部 返回列表