找回密码

蓝光电影网

查看: 133|回复: 0

[剧情] 你只需要爱? Love.Is.All.You.Need.2016.1080p.WEB-DL.DD5.1.H264-FGT 4.18GB

[复制链接]
蓝光币
886
发表于 2020-2-2 12:31:21 | 显示全部楼层 |阅读模式
你只需要爱? Love.Is.All.You.Need.2016.1080p.WEB-DL.DD5.1.H264-FGT 4.18GB-1.png

译  名 你只需要爱?
片  名 Love Is All You Need?
年  代 2016
产  地 美国
类  别 剧情 / 同性 / 奇异
语  言 英语
上映日期 2016-03-05(影探电影节)
IMDb评分  6.3/10 from 802 users
IMDb链接  https://www.imdb.com/title/tt2259122
豆瓣评分 6.8/10 from 56 users
豆瓣链接 https://movie.douban.com/subject/24738948/
片  长 121分钟
导  演 Kim Rocco Shields
编  剧 Kim Rocco Shields
主  演 布莱恩娜·伊维根 Briana Evigan
       泰勒·布莱克本 Tyler Blackburn
       凯拉·肯尼迪 Kyla Kenedy
       阿娜·奥缇兹 Ana Ortiz
       艾米丽·奥斯蒙特 Emily Osment
       伊丽莎白·霍尔姆 Elisabeth R?hm
       珍妮卡·贝尔格雷 Jenica Bergere
       凯瑟琳·拉·纳莎 Katherine LaNasa
       莱昂纳德·罗伯茨 Leonard Roberts
       杰瑞米·西斯托 Jeremy Sisto
       罗伯特·甘特 Robert Gant
       Tim Chiou
       Shawn Parsons
       Cleo Berry
       Malcolm M. Mays


标  签 美国 | 同性 | LGBT | 奇异 | 剧情 | 2016 | 恋爱 | 人性

简  介  

  Based on the award winning critically acclaimed short film, "Love is All You Need?" is the theatrical feature length version that explores bullying, racism, and prejudice in a way never done before on the big screen. As you read this, a pre-teen or teen, in the United States has committed suicide. Teen suicide in the LGBT community has gained immense popularity on a larger social scale then ever before. While the interest in this social dilemma is thrust into the spotlight none have ever before addressed this social issue in such a manner as Kim Rocco Shields newest film. Love Is All You Need? thrusts its audience into another thought of existence that does more than just acknowledge there is a serious social problem affecting the gay community and does more than just talk about the issue. In Love Is All You Need? its audience lives the issue. Different people and their individual, unique lives intertwine and collide in a world confronted with controversy and forbidden love. This world is very much like our own: filled with family gatherings at church, kids playing in the yard and college frat parties. Except these families are led by same-sex couples, and homosexuality is the expectation. To be heterosexual is to be shunned and ridiculed because it means you are different. In this world, to be GAY is right and to be STRAIGHT is wrong. That's the world of Jude Klein, the star quarterback of the Sparta University football team. While celebrating her most recent win at the Phi Beta Lambda fraternity house party, Jude meets sports journalist Ryan Morris. The two quickly form a romantic bond that must be hidden from the rest of the world. The cold and cruel local priest Rachel Duncan discovers this secret affair, inspiring her to fervently organize a hateful campaign against the local "hetero". Meanwhile, 11-year-old Emily is often teased at her elementary school and is kicked off her school's football team. She finds comfort in her new friendship with Ian Santilli, one of her male classmates. Ashley begins to form a crush on her new playmate, despite how strongly her mother Karen is against being straight. These separate stories connect to each other in unexpected ways as each of them struggle with their own problems in this "gay" world. When you live in a world that hates the way you love, is really love all you need?
  1. Video
  2. ID                                       : 1
  3. Format                                   : AVC
  4. Format/Info                              : Advanced Video Codec
  5. Format profile                           : [email protected]
  6. Format settings                          : CABAC / 5 Ref Frames
  7. Format settings, CABAC                   : Yes
  8. Format settings, Reference frames        : 5 frames
  9. Codec ID                                 : V_MPEG4/ISO/AVC
  10. Duration                                 : 2 h 1 min
  11. Bit rate                                 : 4 432 kb/s
  12. Width                                    : 1 920 pixels
  13. Height                                   : 796 pixels
  14. Display aspect ratio                     : 2.40:1
  15. Frame rate mode                          : Constant
  16. Frame rate                               : 23.976 FPS
  17. Color space                              : YUV
  18. Chroma subsampling                       : 4:2:0
  19. Bit depth                                : 8 bits
  20. Scan type                                : Progressive
  21. Bits/(Pixel*Frame)                       : 0.121
  22. Stream size                              : 3.77 GiB (90%)
  23. Title                                    : Love.Is.All.You.Need.2016.1080p.WEB-DL.DD5.1.H264-FGT
  24. Language                                 : English
  25. Default                                  : Yes
  26. Forced                                   : No
  27. Color range                              : Limited
  28. Color primaries                          : BT.709
  29. Transfer characteristics                 : BT.709
  30. Matrix coefficients                      : BT.709

  31. Audio
  32. ID                                       : 2
  33. Format                                   : AC-3
  34. Format/Info                              : Audio Coding 3
  35. Commercial name                          : Dolby Digital
  36. Codec ID                                 : A_AC3
  37. Duration                                 : 2 h 1 min
  38. Bit rate mode                            : Constant
  39. Bit rate                                 : 384 kb/s
  40. Channel(s)                               : 6 channels
  41. Channel layout                           : L R C LFE Ls Rs
  42. Sampling rate                            : 48.0 kHz
  43. Frame rate                               : 31.250 FPS (1536 SPF)
  44. Compression mode                         : Lossy
  45. Stream size                              : 335 MiB (8%)
  46. Title                                    : Love.Is.All.You.Need.2016.1080p.WEB-DL.DD5.1.H264-FGT
  47. Language                                 : English
  48. Service kind                             : Complete Main
  49. Default                                  : Yes
  50. Forced                                   : No

  51. Text
  52. ID                                       : 3
  53. Format                                   : UTF-8
  54. Codec ID                                 : S_TEXT/UTF8
  55. Codec ID/Info                            : UTF-8 Plain Text
  56. Language                                 : English
  57. Default                                  : Yes
  58. Forced                                   : No

  59. Menu
  60. 00:00:00.000                             : en:1
  61. 00:10:23.000                             : en:2
  62. 00:22:37.000                             : en:3
  63. 00:31:56.000                             : en:4
  64. 00:43:47.000                             : en:5
  65. 00:50:35.000                             : en:6
  66. 01:01:33.000                             : en:7
  67. 01:11:07.000                             : en:8
  68. 01:22:35.000                             : en:9
  69. 01:32:24.000                             : en:10
  70. 01:41:32.000                             : en:11
  71. 01:49:32.000                             : en:12
  72. 01:57:05.000                             : en:13
复制代码

你只需要爱? Love.Is.All.You.Need.2016.1080p.WEB-DL.DD5.1.H264-FGT 4.18GB-2.png 你只需要爱? Love.Is.All.You.Need.2016.1080p.WEB-DL.DD5.1.H264-FGT 4.18GB-3.png 你只需要爱? Love.Is.All.You.Need.2016.1080p.WEB-DL.DD5.1.H264-FGT 4.18GB-4.png 你只需要爱? Love.Is.All.You.Need.2016.1080p.WEB-DL.DD5.1.H264-FGT 4.18GB-5.png 你只需要爱? Love.Is.All.You.Need.2016.1080p.WEB-DL.DD5.1.H264-FGT 4.18GB-6.png 你只需要爱? Love.Is.All.You.Need.2016.1080p.WEB-DL.DD5.1.H264-FGT 4.18GB-7.png






回复

使用道具 举报

懒得打字嘛,点击右侧快捷回复 【右侧内容,后台自定义】
您需要登录后才可以回帖 登录 | 立即加入

本版积分规则

Archiver|小黑屋| 蓝光电影网 |网站地图

Copyright © 2021 Comsenz Inc. Powered by 蓝光电影网

蓝光电影网

本站内容由用户自主分享和转载自互联网,转载目的在于传递更多信息,并不代表本网赞同其观点和对其真实性负责。

如有侵权、违反国家法律政策行为,请联系我们,我们会第一时间及时清除和处理!

举报反馈邮箱:[email protected]

快速回复 返回顶部 返回列表