找回密码

蓝光电影网

查看: 153|回复: 0

[恐怖] 死灵屋 Living.Space.2018.1080p.WEB-DL.DD5.1.H264-FGT 2.70GB

[复制链接]
蓝光币
886
发表于 2020-2-2 12:32:01 | 显示全部楼层 |阅读模式
死灵屋 Living.Space.2018.1080p.WEB-DL.DD5.1.H264-FGT 2.70GB-1.png

译  名 死灵屋
片  名 Living Space
年  代 2017
产  地 澳大利亚
类  别 可骇
语  言 英语
上映日期 2017-11-28(澳大利亚)
IMDb评分  3.5/10 from 287 users
IMDb链接  https://www.imdb.com/title/tt5887650
豆瓣评分 0/10 from 0 users
豆瓣链接 https://movie.douban.com/subject/27139359/
片  长 80分钟
导  演 Steven Spiel
编  剧 Steven Spiel
主  演 Georgia Chara
       Andy McPhee
       Jolene Anderson
       Emma Leonard
       Ayrton Burridge
       Leigh Scully
       Erik Vent


标  签 可骇 | 纳粹 | 澳大利亚 | 2017 | 澳洲 | 澳大利亚电影 | 可骇惊悚悬疑重口血腥 | 2019

简  介  

  College sweethearts Brad and Ashley venture into the heartland of Germany. Their romantic holiday takes a sinister turn when encountering a German SS Officer, thrusting them into a psychological vortex revealing there is not always life in a 'Living Space'.
  1. Video
  2. ID                                       : 1
  3. Format                                   : AVC
  4. Format/Info                              : Advanced Video Codec
  5. Format profile                           : [email protected]
  6. Format settings                          : CABAC / 5 Ref Frames
  7. Format settings, CABAC                   : Yes
  8. Format settings, Reference frames        : 5 frames
  9. Codec ID                                 : V_MPEG4/ISO/AVC
  10. Duration                                 : 1 h 18 min
  11. Bit rate                                 : 4 560 kb/s
  12. Width                                    : 1 912 pixels
  13. Height                                   : 788 pixels
  14. Display aspect ratio                     : 2.40:1
  15. Frame rate mode                          : Constant
  16. Frame rate                               : 23.976 (24000/1001) FPS
  17. Color space                              : YUV
  18. Chroma subsampling                       : 4:2:0
  19. Bit depth                                : 8 bits
  20. Scan type                                : Progressive
  21. Bits/(Pixel*Frame)                       : 0.126
  22. Stream size                              : 2.49 GiB (92%)
  23. Title                                    : Living.Space.2018.1080p.WEB-DL.DD5.1.H264-FGT
  24. Language                                 : English
  25. Default                                  : Yes
  26. Forced                                   : No
  27. Color range                              : Limited
  28. Color primaries                          : BT.709
  29. Transfer characteristics                 : BT.709
  30. Matrix coefficients                      : BT.709

  31. Audio
  32. ID                                       : 2
  33. Format                                   : AC-3
  34. Format/Info                              : Audio Coding 3
  35. Commercial name                          : Dolby Digital
  36. Codec ID                                 : A_AC3
  37. Duration                                 : 1 h 18 min
  38. Bit rate mode                            : Constant
  39. Bit rate                                 : 384 kb/s
  40. Channel(s)                               : 6 channels
  41. Channel layout                           : L R C LFE Ls Rs
  42. Sampling rate                            : 48.0 kHz
  43. Frame rate                               : 31.250 FPS (1536 SPF)
  44. Compression mode                         : Lossy
  45. Stream size                              : 215 MiB (8%)
  46. Title                                    : Living.Space.2018.1080p.WEB-DL.DD5.1.H264-FGT
  47. Language                                 : English
  48. Service kind                             : Complete Main
  49. Default                                  : Yes
  50. Forced                                   : No

  51. Text
  52. ID                                       : 3
  53. Format                                   : UTF-8
  54. Codec ID                                 : S_TEXT/UTF8
  55. Codec ID/Info                            : UTF-8 Plain Text
  56. Duration                                 : 1 h 11 min
  57. Bit rate                                 : 21 b/s
  58. Count of elements                        : 669
  59. Stream size                              : 11.2 KiB (0%)
  60. Language                                 : English
  61. Default                                  : Yes
  62. Forced                                   : No

  63. Menu
  64. 00:00:00.000                             : en:01
  65. 00:06:10.000                             : en:02
  66. 00:13:01.000                             : en:03
  67. 00:20:17.000                             : en:04
  68. 00:26:17.000                             : en:05
  69. 00:33:43.000                             : en:06
  70. 00:39:50.000                             : en:07
  71. 00:48:21.000                             : en:08
  72. 00:51:35.000                             : en:09
  73. 01:00:01.000                             : en:10
  74. 01:06:45.000                             : en:11
  75. 01:12:32.000                             : en:12
复制代码

死灵屋 Living.Space.2018.1080p.WEB-DL.DD5.1.H264-FGT 2.70GB-2.png 死灵屋 Living.Space.2018.1080p.WEB-DL.DD5.1.H264-FGT 2.70GB-3.png 死灵屋 Living.Space.2018.1080p.WEB-DL.DD5.1.H264-FGT 2.70GB-4.png






回复

使用道具 举报

懒得打字嘛,点击右侧快捷回复 【右侧内容,后台自定义】
您需要登录后才可以回帖 登录 | 立即加入

本版积分规则

Archiver|小黑屋| 蓝光电影网 |网站地图

Copyright © 2021 Comsenz Inc. Powered by 蓝光电影网

蓝光电影网

本站内容由用户自主分享和转载自互联网,转载目的在于传递更多信息,并不代表本网赞同其观点和对其真实性负责。

如有侵权、违反国家法律政策行为,请联系我们,我们会第一时间及时清除和处理!

举报反馈邮箱:[email protected]

快速回复 返回顶部 返回列表