找回密码

蓝光电影网

查看: 264|回复: 0

[喜剧] 倒霉姐 Jinxed.2013.1080p.WEB-DL.DD5.1.H264-FGT 2.60GB

[复制链接]
蓝光币
886
发表于 2020-2-2 12:34:15 | 显示全部楼层 |阅读模式
倒霉姐 Jinxed.2013.1080p.WEB-DL.DD5.1.H264-FGT 2.60GB-1.png

译  名 倒霉姐
片  名 Jinxed
年  代 2013
产  地 美国
类  别 笑剧
语  言 英语
上映日期 2013-11-29(美国)
IMDb评分  6.6/10 from 1064 users
IMDb链接  https://www.imdb.com/title/tt2934844
豆瓣评分 6.4/10 from 41 users
豆瓣链接 https://movie.douban.com/subject/25781953/
导  演 斯蒂芬·赫瑞克 Stephen Herek
编  剧 尼尔·伊斯雷尔 Neal Israel / Aury Wallington
主  演 西娅拉·布拉沃 Ciara Bravo
       Jacob Bertrand
       Jack Griffo
       博尔克利·杜菲尔德 Burkely Duffield
       Elena Kampouris
       Donavon Stinson
       基冈·康纳·特雷西 Keegan Connor Tracy
       杰伊·布拉泽奥 Jay Brazeau
       Andrea Brooks
       Leisha Auyeung
       Devon Dalton
       马修·哈里逊 Matthew Harrison
       Celestine Hilechi
       Peter Kent
       Eric Son


标  签 笑剧 | 青春 | 美国 | 恋爱 | 剧情 | youth | warm | 魔幻

简  介  

  一个小女孩,总是由于各类倒霉的事儿而烦心。后来,她发现倒霉的不止她一个,她们家的人都很倒霉,本来这源自于她们家的一个诅咒。为了不倒霉到底,她决议找到废除诅咒的法子。 这部由美国著名导演斯蒂芬·赫瑞克于2014年建造的《倒霉姐》约请了雅各布.伯特兰 埃琳娜坎普里斯等明星介入,值得一看
  1. Video
  2. ID                                       : 1
  3. Format                                   : AVC
  4. Format/Info                              : Advanced Video Codec
  5. Format profile                           : [email protected]
  6. Format settings                          : CABAC / 4 Ref Frames
  7. Format settings, CABAC                   : Yes
  8. Format settings, Reference frames        : 4 frames
  9. Codec ID                                 : V_MPEG4/ISO/AVC
  10. Duration                                 : 1 h 9 min
  11. Bit rate                                 : 4 879 kb/s
  12. Width                                    : 1 916 pixels
  13. Height                                   : 1 076 pixels
  14. Display aspect ratio                     : 16:9
  15. Frame rate mode                          : Constant
  16. Frame rate                               : 23.976 FPS
  17. Color space                              : YUV
  18. Chroma subsampling                       : 4:2:0
  19. Bit depth                                : 8 bits
  20. Scan type                                : Progressive
  21. Bits/(Pixel*Frame)                       : 0.099
  22. Stream size                              : 2.36 GiB (91%)
  23. Title                                    : Jinxed.2013.1080p.WEB-DL.DD5.1.H264-FGT
  24. Language                                 : English
  25. Default                                  : Yes
  26. Forced                                   : No
  27. Color range                              : Limited
  28. Color primaries                          : BT.709
  29. Transfer characteristics                 : BT.709
  30. Matrix coefficients                      : BT.709

  31. Audio
  32. ID                                       : 2
  33. Format                                   : AC-3
  34. Format/Info                              : Audio Coding 3
  35. Commercial name                          : Dolby Digital
  36. Codec ID                                 : A_AC3
  37. Duration                                 : 1 h 9 min
  38. Bit rate mode                            : Constant
  39. Bit rate                                 : 384 kb/s
  40. Channel(s)                               : 6 channels
  41. Channel layout                           : L R C LFE Ls Rs
  42. Sampling rate                            : 48.0 kHz
  43. Frame rate                               : 31.250 FPS (1536 SPF)
  44. Compression mode                         : Lossy
  45. Stream size                              : 190 MiB (7%)
  46. Title                                    : Jinxed.2013.1080p.WEB-DL.DD5.1.H264-FGT
  47. Language                                 : English
  48. Service kind                             : Complete Main
  49. Default                                  : Yes
  50. Forced                                   : No

  51. Text
  52. ID                                       : 3
  53. Format                                   : UTF-8
  54. Codec ID                                 : S_TEXT/UTF8
  55. Codec ID/Info                            : UTF-8 Plain Text
  56. Language                                 : English
  57. Default                                  : Yes
  58. Forced                                   : No

  59. Menu
  60. 00:00:00.000                             : en:Chapter_01
  61. 00:11:37.000                             : en:Chapter_02
  62. 00:18:02.000                             : en:Chapter_03
  63. 00:28:26.000                             : en:Chapter_04
  64. 00:40:51.000                             : en:Chapter_05
  65. 00:57:13.000                             : en:Chapter_06
  66. 01:07:34.000                             : en:Chapter_07
复制代码

倒霉姐 Jinxed.2013.1080p.WEB-DL.DD5.1.H264-FGT 2.60GB-2.png 倒霉姐 Jinxed.2013.1080p.WEB-DL.DD5.1.H264-FGT 2.60GB-3.png 倒霉姐 Jinxed.2013.1080p.WEB-DL.DD5.1.H264-FGT 2.60GB-4.png 倒霉姐 Jinxed.2013.1080p.WEB-DL.DD5.1.H264-FGT 2.60GB-5.png 倒霉姐 Jinxed.2013.1080p.WEB-DL.DD5.1.H264-FGT 2.60GB-6.png 倒霉姐 Jinxed.2013.1080p.WEB-DL.DD5.1.H264-FGT 2.60GB-7.png






回复

使用道具 举报

懒得打字嘛,点击右侧快捷回复 【右侧内容,后台自定义】
您需要登录后才可以回帖 登录 | 立即加入

本版积分规则

Archiver|小黑屋| 蓝光电影网 |网站地图

Copyright © 2021 Comsenz Inc. Powered by 蓝光电影网

蓝光电影网

本站内容由用户自主分享和转载自互联网,转载目的在于传递更多信息,并不代表本网赞同其观点和对其真实性负责。

如有侵权、违反国家法律政策行为,请联系我们,我们会第一时间及时清除和处理!

举报反馈邮箱:[email protected]

快速回复 返回顶部 返回列表