找回密码

蓝光电影网

查看: 245|回复: 0

[喜剧] 情人节恋事 It.Happened.One.Valentines.2017.1080p.WEB-DL.DD5.1.H264-FGT 3.59GB

[复制链接]
蓝光币
886
发表于 2020-2-2 12:35:21 | 显示全部楼层 |阅读模式
情人节恋事 It.Happened.One.Valentines.2017.1080p.WEB-DL.DD5.1.H264-FGT 3.59GB-1.png

译  名 情人节恋事 / Love Exclusively
片  名 It Happened One Valentine's
年  代 2017
产  地 美国
类  别 笑剧 / 恋爱
语  言 英语
上映日期 2017-02-07(美国)
IMDb评分  5.4/10 from 369 users
IMDb链接  https://www.imdb.com/title/tt5646992
豆瓣评分 0/10 from 0 users
豆瓣链接 https://movie.douban.com/subject/26970853/
片  长 92分钟
导  演 杰克·赫尔格恩 Jake Helgren
编  剧 杰克·赫尔格恩 Jake Helgren
主  演 詹姆斯·马斯洛 James Maslow
       海雷·韦伯 Haley Webb
       Brittany Underwood


标  签 美国 | 恋爱 | 笑剧 | 詹姆斯·马斯洛 | 情人节 | 2017 | 音乐 | 男主

简  介  

  When ambitious reporter Allie Rusch is recruited by vindictive music manager Vivian Cartwright to play cupid to famous pop musicians Caleb Greene and Carson Peet in return for an exclusive story over Valentine's weekend, Allie soon realizes Caleb has his sights set on her. Now, torn between her big career move and her growing feelings for Caleb, Allie is left to question whether she can coerce Caleb into something his heart does not desire, or if she should fall in love and make him her very own Valentine.
  1. Video
  2. ID                                       : 1
  3. Format                                   : AVC
  4. Format/Info                              : Advanced Video Codec
  5. Format profile                           : [email protected]
  6. Format settings                          : CABAC / 4 Ref Frames
  7. Format settings, CABAC                   : Yes
  8. Format settings, Reference frames        : 4 frames
  9. Codec ID                                 : V_MPEG4/ISO/AVC
  10. Duration                                 : 1 h 32 min
  11. Bit rate                                 : 5 078 kb/s
  12. Width                                    : 1 904 pixels
  13. Height                                   : 1 064 pixels
  14. Display aspect ratio                     : 16:9
  15. Frame rate mode                          : Constant
  16. Frame rate                               : 23.976 FPS
  17. Color space                              : YUV
  18. Chroma subsampling                       : 4:2:0
  19. Bit depth                                : 8 bits
  20. Scan type                                : Progressive
  21. Bits/(Pixel*Frame)                       : 0.105
  22. Stream size                              : 3.27 GiB (91%)
  23. Title                                    : It.Happened.One.Valentines.2017.1080p.WEB-DL.DD5.1.H264-FGT
  24. Language                                 : English
  25. Default                                  : Yes
  26. Forced                                   : No
  27. Color range                              : Limited
  28. Color primaries                          : BT.709
  29. Transfer characteristics                 : BT.709
  30. Matrix coefficients                      : BT.709

  31. Audio
  32. ID                                       : 2
  33. Format                                   : AC-3
  34. Format/Info                              : Audio Coding 3
  35. Commercial name                          : Dolby Digital
  36. Codec ID                                 : A_AC3
  37. Duration                                 : 1 h 32 min
  38. Bit rate mode                            : Constant
  39. Bit rate                                 : 384 kb/s
  40. Channel(s)                               : 6 channels
  41. Channel layout                           : L R C LFE Ls Rs
  42. Sampling rate                            : 48.0 kHz
  43. Frame rate                               : 31.250 FPS (1536 SPF)
  44. Compression mode                         : Lossy
  45. Stream size                              : 253 MiB (7%)
  46. Title                                    : It.Happened.One.Valentines.2017.1080p.WEB-DL.DD5.1.H264-FGT
  47. Language                                 : English
  48. Service kind                             : Complete Main
  49. Default                                  : Yes
  50. Forced                                   : No

  51. Text
  52. ID                                       : 3
  53. Format                                   : UTF-8
  54. Codec ID                                 : S_TEXT/UTF8
  55. Codec ID/Info                            : UTF-8 Plain Text
  56. Language                                 : English
  57. Default                                  : Yes
  58. Forced                                   : No

  59. Menu
  60. 00:00:00.000                             : en:Chapter 1
  61. 00:08:26.506                             : en:Chapter 2
  62. 00:21:26.285                             : en:Chapter 3
  63. 00:32:06.925                             : en:Chapter 4
  64. 00:40:20.418                             : en:Chapter 5
  65. 00:49:02.940                             : en:Chapter 6
  66. 01:00:37.634                             : en:Chapter 7
  67. 01:10:14.210                             : en:Chapter 8
  68. 01:20:12.808                             : en:Chapter 9
  69. 01:30:01.396                             : en:Chapter 10
复制代码

情人节恋事 It.Happened.One.Valentines.2017.1080p.WEB-DL.DD5.1.H264-FGT 3.59GB-2.png 情人节恋事 It.Happened.One.Valentines.2017.1080p.WEB-DL.DD5.1.H264-FGT 3.59GB-3.png 情人节恋事 It.Happened.One.Valentines.2017.1080p.WEB-DL.DD5.1.H264-FGT 3.59GB-4.png 情人节恋事 It.Happened.One.Valentines.2017.1080p.WEB-DL.DD5.1.H264-FGT 3.59GB-5.png 情人节恋事 It.Happened.One.Valentines.2017.1080p.WEB-DL.DD5.1.H264-FGT 3.59GB-6.png 情人节恋事 It.Happened.One.Valentines.2017.1080p.WEB-DL.DD5.1.H264-FGT 3.59GB-1.png






回复

使用道具 举报

懒得打字嘛,点击右侧快捷回复 【右侧内容,后台自定义】
您需要登录后才可以回帖 登录 | 立即加入

本版积分规则

Archiver|小黑屋| 蓝光电影网 |网站地图

Copyright © 2021 Comsenz Inc. Powered by 蓝光电影网

蓝光电影网

本站内容由用户自主分享和转载自互联网,转载目的在于传递更多信息,并不代表本网赞同其观点和对其真实性负责。

如有侵权、违反国家法律政策行为,请联系我们,我们会第一时间及时清除和处理!

举报反馈邮箱:[email protected]

快速回复 返回顶部 返回列表