找回密码

蓝光电影网

查看: 208|回复: 0

[剧情] 爱情与战争/战火情恋 In.Love.and.War.1996.1080p.WEB-DL.AAC2.0.H264-FGT 3.67GB

[复制链接]
蓝光币
886
发表于 2020-2-2 13:42:00 | 显示全部楼层 |阅读模式
恋爱与战争/烽火情恋 In.Love.and.War.1996.1080p.WEB-DL.AAC2.0.H264-FGT 3.67GB-1.png

译  名 恋爱与战争 / 烽火情恋 / 永久爱你 / 分开今后
片  名 In Love and War
年  代 1996
产  地 美国
类  别 剧情 / 恋爱 / 战争
语  言 英语 / 意大利语
上映日期 1996-12-18
IMDb评分  6.0/10 from 7862 users
IMDb链接  https://www.imdb.com/title/tt0116621
豆瓣评分 7.3/10 from 548 users
豆瓣链接 https://movie.douban.com/subject/1301591/
片  长 111分钟
导  演 Richard Attenborough
编  剧 Allan Scott / Clancy Sigal
主  演 Sandra Bullock
       Chris O'Donnell
       Mackenzie Astin


标  签 恋爱 | 战争 | 美国 | 列传 | 美国电影 | 海明威恋爱 | 桑德拉·布洛克 | SandraBullock

简  介  

  故事发生在1918年的意大利,海明威(克里斯·奥唐纳 Chris O'Donnell 饰)怀揣着满腔的热血来到了火线,投身到了残暴而又剧烈的战争中去。在一场意外中,海明威遭到了炮弹的攻击,身受重伤被送往了战地医院。在那边,海明威相逢了名为艾格尼(桑德拉·布洛克 Sandra Bullock 饰)的美丽护士,艾格尼的精明强干和温柔善良很快就令海明威坠入了爱河,向前者倡议了炽热的攻势。
  同时在追求艾格尼的还有医生卡拉奇妙(菲利普·雷罗伊 Philippe Leroy 饰)和病人亨利(麦肯齐·阿斯丁 Mackenzie Astin 饰),艾格尼始终未向三人亮相。一次偶然中,海明威展现出的文学天赋终究让艾格尼动了心,可是没过量久,艾格尼便和卡拉奇妙一路被调往了火线医疗站,而海明威则被派遣返国。

获奖情况  

  第47届柏林国际电影节(1997)
  金熊奖 最好影片(提名) 理查德·阿滕伯勒
  1. Video
  2. ID                                       : 1
  3. Format                                   : AVC
  4. Format/Info                              : Advanced Video Codec
  5. Format profile                           : [email protected]
  6. Format settings                          : CABAC / 5 Ref Frames
  7. Format settings, CABAC                   : Yes
  8. Format settings, Reference frames        : 5 frames
  9. Codec ID                                 : V_MPEG4/ISO/AVC
  10. Duration                                 : 1 h 53 min
  11. Bit rate                                 : 4 504 kb/s
  12. Width                                    : 1 902 pixels
  13. Height                                   : 768 pixels
  14. Display aspect ratio                     : 2.477
  15. Frame rate mode                          : Constant
  16. Frame rate                               : 23.976 (23976/1000) FPS
  17. Color space                              : YUV
  18. Chroma subsampling                       : 4:2:0
  19. Bit depth                                : 8 bits
  20. Scan type                                : Progressive
  21. Bits/(Pixel*Frame)                       : 0.129
  22. Stream size                              : 3.57 GiB (97%)
  23. Title                                    : In.Love.and.War.1996.1080p.WEB-DL.AAC2.0.H264-FGT
  24. Language                                 : English
  25. Default                                  : Yes
  26. Forced                                   : No
  27. Color range                              : Limited
  28. Color primaries                          : BT.709
  29. Transfer characteristics                 : BT.709
  30. Matrix coefficients                      : BT.709

  31. Audio
  32. ID                                       : 2
  33. Format                                   : AAC LC
  34. Format/Info                              : Advanced Audio Codec Low Complexity
  35. Codec ID                                 : A_AAC-2
  36. Duration                                 : 1 h 53 min
  37. Bit rate                                 : 126 kb/s
  38. Channel(s)                               : 2 channels
  39. Channel layout                           : L R
  40. Sampling rate                            : 48.0 kHz
  41. Frame rate                               : 46.875 FPS (1024 SPF)
  42. Compression mode                         : Lossy
  43. Stream size                              : 102 MiB (3%)
  44. Title                                    : In.Love.and.War.1996.1080p.WEB-DL.AAC2.0.H264-FGT
  45. Language                                 : English
  46. Default                                  : Yes
  47. Forced                                   : No

  48. Text
  49. ID                                       : 3
  50. Format                                   : UTF-8
  51. Codec ID                                 : S_TEXT/UTF8
  52. Codec ID/Info                            : UTF-8 Plain Text
  53. Duration                                 : 1 h 49 min
  54. Bit rate                                 : 49 b/s
  55. Count of elements                        : 1540
  56. Stream size                              : 39.7 KiB (0%)
  57. Language                                 : English
  58. Default                                  : Yes
  59. Forced                                   : No

  60. Menu
  61. 00:00:00.000                             : en:Main Title
  62. 00:02:51.000                             : en:Northern Italy,1918
  63. 00:08:38.000                             : en:Hemingway Reports For Duty
  64. 00:11:20.000                             : en:Ernie In The Trenches
  65. 00:19:02.000                             : en:A Wounded Man
  66. 00:27:54.000                             : en:The Operating Room
  67. 00:32:56.000                             : en:New Patients
  68. 00:35:44.000                             : en:Ernie's First Move
  69. 00:38:10.000                             : en:Date With The Doctor
  70. 00:44:23.000                             : en:No Patience
  71. 00:49:45.000                             : en:Three On A Picnic
  72. 00:57:12.000                             : en:Jimmy's Solution
  73. 01:00:35.000                             : en:The Letter
  74. 01:05:14.000                             : en:Agnes Says Goodbye
  75. 01:09:49.000                             : en:Ernie's Orders
  76. 01:12:08.000                             : en:So Near
  77. 01:17:13.000                             : en:So Far
  78. 01:20:18.000                             : en:Caracciolo's Weekend
  79. 01:26:19.000                             : en:"The War Is Over."
  80. 01:27:52.000                             : en:Agnes' Dilema
  81. 01:35:22.000                             : en:New York.Eight Months Later
  82. 01:38:58.000                             : en:Waloon Lake
  83. 01:47:58.000                             : en:Coda
  84. 01:49:17.000                             : en:End Cedits
复制代码

恋爱与战争/烽火情恋 In.Love.and.War.1996.1080p.WEB-DL.AAC2.0.H264-FGT 3.67GB-2.png 恋爱与战争/烽火情恋 In.Love.and.War.1996.1080p.WEB-DL.AAC2.0.H264-FGT 3.67GB-1.png 恋爱与战争/烽火情恋 In.Love.and.War.1996.1080p.WEB-DL.AAC2.0.H264-FGT 3.67GB-4.png 恋爱与战争/烽火情恋 In.Love.and.War.1996.1080p.WEB-DL.AAC2.0.H264-FGT 3.67GB-5.png 恋爱与战争/烽火情恋 In.Love.and.War.1996.1080p.WEB-DL.AAC2.0.H264-FGT 3.67GB-6.png 恋爱与战争/烽火情恋 In.Love.and.War.1996.1080p.WEB-DL.AAC2.0.H264-FGT 3.67GB-7.png






回复

使用道具 举报

懒得打字嘛,点击右侧快捷回复 【右侧内容,后台自定义】
您需要登录后才可以回帖 登录 | 立即加入

本版积分规则

Archiver|小黑屋| 蓝光电影网 |网站地图

Copyright © 2021 Comsenz Inc. Powered by 蓝光电影网

蓝光电影网

本站内容由用户自主分享和转载自互联网,转载目的在于传递更多信息,并不代表本网赞同其观点和对其真实性负责。

如有侵权、违反国家法律政策行为,请联系我们,我们会第一时间及时清除和处理!

举报反馈邮箱:[email protected]

快速回复 返回顶部 返回列表