找回密码

蓝光电影网

查看: 759|回复: 1

[剧情] 一一[CC标准版].Yi Yi.2000.TW.CC.#339.BluRay.1280x692p.x264.DTS-KOOK.[中英字幕]9.8G

[复制链接]
蓝光币
886
发表于 2020-2-2 13:53:26 | 显示全部楼层 |阅读模式
逐一[CC标准版].Yi Yi.2000.TW.CC.#339.BluRay.1280x692p.x264.DTS-KOOK.[中英字幕]9.8G-1.jpg
※※※※※※※ 影片信息 ※※※※※※※

片   名 逐一

译   名 Yi Yi

年   代 2000

国   家 中国台湾

类   别 剧情 / 恋爱 / 家庭

语   言 国语

字   幕 中笔墨幕/英笔墨幕

IMDB评分   7.9/10

片   长 173mins

导   演 杨德昌 Edward Yang

主   演 吴念真 Nien-Jen Wu

      金燕玲 Yin-Ling Chin

       Issey Ogata

      李凯莉 Kelly Lee

      张洋洋 Jonathan Chang

       Hsi-Sheng Chen



简  介

  NJ(吴念真)是个很有原则的买卖人,同妻子敏敏(金燕玲)、女儿婷婷(李凯莉)、儿子洋洋(张杨洋)以及外婆住在台北某所普通公寓里。小舅子的一场麻烦婚礼事后,由于外婆忽然中风昏迷,他迎来加倍紊乱的日子。

  敏敏公司、家里两头跑,经常感受自己要被耗空;婷婷一向为外婆的中风惭愧,恋爱谈到中途发现自己不外是替换品;NJ更是麻烦重重,公司面临破产,他又不愿放下他人眼里一文不值的自负。一家人里,似乎只要洋洋没有懊恼,他安静地用拍照机拍着各类人的后背,帮他们长出另一双眼睛,但是,洋洋简简单单的一句话,道出更深的悲凉。







  1. ※※※※※※※ 参数信息 ※※※※※※※


  2. 片源:Yi.Yi.2000.BluRay.720p.x264.DTS-CHD





  3. Format : Matroska

  4. Format version : Version 4 / Version 2

  5. File size : 9.80 GiB

  6. Duration : 2 h 53 min

  7. Overall bit rate : 8 083 kb/s

  8. Encoded date : UTC 2016-11-26 11:52:01

  9. Writing application : mkvmerge v7.7.0 ('Six Voices') 32bit built on Feb 28 2015 23:23:00

  10. Writing library : libebml v1.3.1 + libmatroska v1.4.2


  11. Video

  12. ID : 1

  13. Format : AVC

  14. Format/Info : Advanced Video Codec

  15. Format profile : [email protected]

  16. Format settings, CABAC : Yes

  17. Format settings, ReFrames : 9 frames

  18. Codec ID : V_MPEG4/ISO/AVC

  19. Duration : 2 h 53 min

  20. Bit rate : 6 572 kb/s

  21. Width : 1 280 pixels

  22. Height : 692 pixels

  23. Display aspect ratio : 1.85:1

  24. Frame rate mode : Constant

  25. Frame rate : 23.976 FPS

  26. Color space : YUV

  27. Chroma subsampling : 4:2:0

  28. Bit depth : 8 bits

  29. Scan type : Progressive

  30. Bits/(Pixel*Frame) : 0.309

  31. Stream size : 7.97 GiB (81%)

  32. Title : Yi.Yi.2000.BluRay.720p.DTS.x264-CHD

  33. Writing library : x264 core 102 r1666 d058f37

  34. Encoding settings : cabac=1 / ref=9 / deblock=1:-3:-3 / analyse=0x3:0x113 / me=umh / subme=10 / psy=1 / psy_rd=1.05:0.10 / mixed_ref=1 / me_range=32 / chroma_me=1 / trellis=2 / 8x8dct=1 / cqm=2 / deadzone=21,11 / fast_pskip=0 / chroma_qp_offset=-2 / threads=6 / sliced_threads=0 / nr=0 / decimate=1 / interlaced=0 / constrained_intra=0 / bframes=6 / b_pyramid=2 / b_adapt=2 / b_bias=0 / direct=3 / weightb=1 / open_gop=0 / weightp=2 / keyint=250 / keyint_min=25 / scenecut=40 / intra_refresh=0 / rc_lookahead=40 / rc=2pass / mbtree=1 / bitrate=6572 / ratetol=1.0 / qcomp=0.60 / qpmin=10 / qpmax=51 / qpstep=4 / cplxblur=20.0 / qblur=0.5 / vbv_maxrate=50000 / vbv_bufsize=50000 / ip_ratio=1.40 / aq=1:0.80 / nal_hrd=none

  35. Language : Chinese

  36. Default : No

  37. Forced : No


  38. Audio

  39. ID : 2

  40. Format : DTS

  41. Format/Info : Digital Theater Systems

  42. Mode : 16

  43. Format settings, Endianness : Big

  44. Codec ID : A_DTS

  45. Duration : 2 h 53 min

  46. Bit rate mode : Constant

  47. Bit rate : 1 509 kb/s

  48. Channel(s) : 2 channels

  49. Channel positions : Front: L R

  50. Sampling rate : 48.0 kHz

  51. Frame rate : 93.750 FPS (512 spf)

  52. Bit depth : 24 bits

  53. Compression mode : Lossy

  54. Stream size : 1.83 GiB (19%)

  55. Title : Yi.Yi.2000.DTS-HD.MA Core [email protected]

  56. Language : Chinese

  57. Default : Yes

  58. Forced : No


  59. Text #1

  60. ID : 3

  61. Format : ASS

  62. Codec ID : S_TEXT/ASS

  63. Codec ID/Info : Advanced Sub Station Alpha

  64. Duration : 2 h 50 min

  65. Bit rate : 159 b/s

  66. Count of elements : 2035

  67. Compression mode : Lossless

  68. Stream size : 200 KiB (0%)

  69. Title : 中笔墨幕

  70. Language : Chinese

  71. Default : Yes

  72. Forced : No


  73. Text #2

  74. ID : 4

  75. Format : ASS

  76. Codec ID : S_TEXT/ASS

  77. Codec ID/Info : Advanced Sub Station Alpha

  78. Duration : 2 h 51 min

  79. Bit rate : 133 b/s

  80. Count of elements : 1478

  81. Compression mode : Lossless

  82. Stream size : 168 KiB (0%)

  83. Title : 英笔墨幕

  84. Language : English

  85. Default : No

  86. Forced : No
复制代码




逐一[CC标准版].Yi Yi.2000.TW.CC.#339.BluRay.1280x692p.x264.DTS-KOOK.[中英字幕]9.8G-2.jpg








回复

使用道具 举报

懒得打字嘛,点击右侧快捷回复 【右侧内容,后台自定义】
您需要登录后才可以回帖 登录 | 立即加入

本版积分规则

Archiver|小黑屋| 蓝光电影网 |网站地图

Copyright © 2021 Comsenz Inc. Powered by 蓝光电影网

蓝光电影网

本站内容由用户自主分享和转载自互联网,转载目的在于传递更多信息,并不代表本网赞同其观点和对其真实性负责。

如有侵权、违反国家法律政策行为,请联系我们,我们会第一时间及时清除和处理!

举报反馈邮箱:[email protected]

快速回复 返回顶部 返回列表