找回密码

蓝光电影网

查看: 438|回复: 0

[恐怖] 女巫 Haxan.1922.720p.BluRay.x264-USURY 6.56GB

[复制链接]
蓝光币
886
发表于 2020-2-2 17:24:24 | 显示全部楼层 |阅读模式
女巫 Haxan.1922.720p.BluRay.x264-USURY 6.56GB-1.png

译  名 女巫 / The Witches / Witchcraft Through the Ages / 历代的巫术 / 女妖
片  名 H?xan
年  代 1922
产  地 丹麦
类  别 可骇 / 记载片 / 奇异
语  言 丹麦语
上映日期 1922-09-18
IMDb评分  7.7/10 from 11004 users
IMDb链接  https://www.imdb.com/title/tt0013257
豆瓣评分 8.1/10 from 981 users
豆瓣链接 https://movie.douban.com/subject/1439560/
片  长 Sweden: 87 分钟
导  演 Benjamin Christensen
编  剧 Benjamin Christensen
主  演 Maren Pedersen
       Clara Pontoppidan
       Elith Pio
       Oscar Stribolt


标  签 记载片 | 丹麦 | 默片 | 哥特 | 瑞典 | 可骇 | 1920s | 1922

简  介  

  一部有关宗教巫术的准记录片,天下前50名记载片第39位。
  简介:《女巫们》也叫《历代的巫术》,可以看做是一部有关宗教巫术的准记录片。1919 到1921间丹麦导演创作了这部瑞典与丹麦合拍的超越时代佳构,并在该片中饰演魔鬼一角。这部影片构想新奇、外型技能高明、画面结构松散,应用富于表示力的特写镜头和行动感强的蒙太奇均很得当。可是由于宗教缘由,这部电影那时被瑞典和其他欧洲国家列为禁片,直到1929年,经过严酷删剪的版本才在美国出现。导演也由于那时Hollywood的纳贤口号而移居美国,但也并未得志,郁郁而终。这部作品的意义不但在于题材的敏感和手法的前卫,在视觉成就方面,本片无疑更是电影史上的俊彦之一。
  1. Video
  2. ID                                       : 1
  3. Format                                   : AVC
  4. Format/Info                              : Advanced Video Codec
  5. Format profile                           : [email protected]
  6. Format settings                          : CABAC / 5 Ref Frames
  7. Format settings, CABAC                   : Yes
  8. Format settings, Reference frames        : 5 frames
  9. Codec ID                                 : V_MPEG4/ISO/AVC
  10. Duration                                 : 1 h 45 min
  11. Bit rate                                 : 7 369 kb/s
  12. Width                                    : 976 pixels
  13. Height                                   : 720 pixels
  14. Display aspect ratio                     : 4:3
  15. Frame rate mode                          : Constant
  16. Frame rate                               : 19.980 (20000/1001) FPS
  17. Color space                              : YUV
  18. Chroma subsampling                       : 4:2:0
  19. Bit depth                                : 8 bits
  20. Scan type                                : Progressive
  21. Bits/(Pixel*Frame)                       : 0.525
  22. Stream size                              : 5.44 GiB (83%)
  23. Writing library                          : x264 core 157 r2969 d4099dd
  24. Encoding settings                        : cabac=1 / ref=5 / deblock=1:-3:-3 / analyse=0x3:0x133 / me=umh / subme=9 / psy=1 / psy_rd=1.00:0.00 / mixed_ref=1 / me_range=16 / chroma_me=1 / trellis=2 / 8x8dct=1 / cqm=0 / deadzone=21,11 / fast_pskip=0 / chroma_qp_offset=-2 / threads=18 / lookahead_threads=1 / sliced_threads=0 / nr=0 / decimate=1 / interlaced=0 / bluray_compat=0 / constrained_intra=0 / bframes=3 / b_pyramid=2 / b_adapt=1 / b_bias=0 / direct=3 / weightb=1 / open_gop=0 / weightp=2 / keyint=200 / keyint_min=20 / scenecut=40 / intra_refresh=0 / rc_lookahead=50 / rc=2pass / mbtree=1 / bitrate=7369 / ratetol=1.0 / qcomp=0.60 / qpmin=0 / qpmax=69 / qpstep=4 / cplxblur=20.0 / qblur=0.5 / ip_ratio=1.40 / aq=1:1.00
  25. Language                                 : English
  26. Default                                  : Yes
  27. Forced                                   : No

  28. Audio
  29. ID                                       : 2
  30. Format                                   : DTS
  31. Format/Info                              : Digital Theater Systems
  32. Codec ID                                 : A_DTS
  33. Duration                                 : 1 h 45 min
  34. Bit rate mode                            : Constant
  35. Bit rate                                 : 1 509 kb/s
  36. Channel(s)                               : 5 channels
  37. Channel layout                           : C L R Ls Rs
  38. Sampling rate                            : 48.0 kHz
  39. Frame rate                               : 93.750 FPS (512 SPF)
  40. Bit depth                                : 24 bits
  41. Compression mode                         : Lossy
  42. Stream size                              : 1.11 GiB (17%)
  43. Default                                  : Yes
  44. Forced                                   : No

  45. Text
  46. ID                                       : 3
  47. Format                                   : UTF-8
  48. Codec ID                                 : S_TEXT/UTF8
  49. Codec ID/Info                            : UTF-8 Plain Text
  50. Duration                                 : 1 h 45 min
  51. Bit rate                                 : 29 b/s
  52. Count of elements                        : 462
  53. Stream size                              : 22.7 KiB (0%)
  54. Title                                    : English
  55. Language                                 : English
  56. Default                                  : Yes
  57. Forced                                   : Yes

  58. Menu
  59. 00:00:00.000                             : en:00:00:00.000
  60. 00:06:31.558                             : en:00:06:31.558
  61. 00:08:30.093                             : en:00:08:30.093
  62. 00:13:53.666                             : en:00:13:53.666
  63. 00:22:01.987                             : en:00:22:01.987
  64. 00:25:06.130                             : en:00:25:06.130
  65. 00:34:34.114                             : en:00:34:34.114
  66. 00:38:27.514                             : en:00:38:27.514
  67. 00:45:07.163                             : en:00:45:07.163
  68. 00:51:35.384                             : en:00:51:35.384
  69. 00:54:33.479                             : en:00:54:33.479
  70. 00:58:47.983                             : en:00:58:47.983
  71. 01:03:34.394                             : en:01:03:34.394
  72. 01:05:41.521                             : en:01:05:41.521
  73. 01:12:34.350                             : en:01:12:34.350
  74. 01:15:44.832                             : en:01:15:44.832
  75. 01:21:41.772                             : en:01:21:41.772
  76. 01:25:49.061                             : en:01:25:49.061
  77. 01:26:59.798                             : en:01:26:59.798
  78. 01:28:22.088                             : en:01:28:22.088
  79. 01:39:15.116                             : en:01:39:15.116
复制代码

女巫 Haxan.1922.720p.BluRay.x264-USURY 6.56GB-2.png






回复

使用道具 举报

懒得打字嘛,点击右侧快捷回复 【右侧内容,后台自定义】
您需要登录后才可以回帖 登录 | 立即加入

本版积分规则

Archiver|小黑屋| 蓝光电影网 |网站地图

Copyright © 2021 Comsenz Inc. Powered by 蓝光电影网

蓝光电影网

本站内容由用户自主分享和转载自互联网,转载目的在于传递更多信息,并不代表本网赞同其观点和对其真实性负责。

如有侵权、违反国家法律政策行为,请联系我们,我们会第一时间及时清除和处理!

举报反馈邮箱:[email protected]

快速回复 返回顶部 返回列表