找回密码

蓝光电影网

查看: 353|回复: 0

[剧情] 猴子/失控少年兵团 Monos.2019.SUBBED.720p.BluRay.x264-USURY 4.37GB

[复制链接]
蓝光币
886
发表于 2020-2-2 17:27:48 | 显示全部楼层 |阅读模式
山公/失控少年兵团 Monos.2019.SUBBED.720p.BluRay.x264-USURY 4.37GB-1.png

译  名 山公 / 失控少年兵团(台)
片  名 Monos
年  代 2019
产  地 哥伦比亚 / 阿根廷 / 荷兰 / 德国 / 瑞典 / 乌拉圭 / 美国 / 瑞士 / 丹麦
类  别 剧情 / 惊悚
语  言 西班牙语 / 英语
上映日期 2019-01-26(圣丹斯电影节) / 2019-08-15(哥伦比亚)
IMDb评分  7.3/10 from 6045 users
IMDb链接  https://www.imdb.com/title/tt6062774
豆瓣评分 7.3/10 from 7477 users
豆瓣链接 https://movie.douban.com/subject/27036366/
片  长 102分钟
导  演 亚历桑德罗·朗德思 Alejandro Landes
编  剧 亚历桑德罗·朗德思 Alejandro Landes / 亚历克西斯·多斯·桑托斯 Alexis Dos Santos
主  演 索非娅·布埃纳文图拉 Sofia Buenaventura
       朱利安·希拉尔多 Julian Giraldo
       凯伦·金特罗 Karen Quintero
       劳拉·卡斯特里隆 Laura Castrillón
       德伊比·鲁埃达 Deiby Rueda
       保罗·库比德斯 Paul Cubides
       斯奈德·卡斯特罗 Sneider Castro
       莫伊塞斯·阿里亚斯 Moises Arias
       朱丽安妮·尼科尔森 Julianne Nicholson
       威尔逊·萨拉查 Wilson Salazar
       豪尔赫·罗曼 Jorge Román


标  签 哥伦比亚 | 2019 | 剧情 | 人性 | 惊悚 | 文艺 | 战争 | 圣丹斯电影节

简  介  

  报告了八个哥伦比亚游击队少年在山区基地中看管一位美国俘虏的故事,他们履历的一系列事务让人起头深思长大、叛逆、规训等主题。雨林、山丘、急流的绚丽布景与叙事的残暴相辅相成,出色的配乐和幻化莫测的剪辑一样使人赞叹。本片获第35届圣丹斯电影节评审团出格奖。

获奖情况  

  第69届柏林国际电影节(2019)
  泰迪熊奖 最好电影(提名) 阿莱汉德罗·朗德思

  第34届西班牙戈雅奖(2020)
  最好西班牙语本国片(提名)

  第35届圣丹斯电影节(2019)
  评审团大奖 天下电影单元剧情片(提名) 阿莱汉德罗·朗德思
  评审团出格奖 天下电影单元剧情片

  第67届圣塞巴斯蒂安国际电影节(2019)
  地平线大奖(提名) 阿莱汉德罗·朗德思

  第34届美国摄影协会奖(2020)
  聚光灯奖(提名) 加斯佩尔·沃尔夫

  第22届英国自力电影奖(2019)
  最好本国自力电影(提名)

  第40届伦敦影评人协会奖(2020)
  年度外语片(提名)
  技术成就奖(提名) 加斯佩尔·沃尔夫

  第23届美国在线影评人协会奖(2020)
  最好非英语片(提名)
  1. Video
  2. ID                                       : 1
  3. Format                                   : AVC
  4. Format/Info                              : Advanced Video Codec
  5. Format profile                           : [email protected]
  6. Format settings                          : CABAC / 5 Ref Frames
  7. Format settings, CABAC                   : Yes
  8. Format settings, Reference frames        : 5 frames
  9. Codec ID                                 : V_MPEG4/ISO/AVC
  10. Duration                                 : 1 h 43 min
  11. Bit rate                                 : 4 535 kb/s
  12. Width                                    : 1 280 pixels
  13. Height                                   : 536 pixels
  14. Display aspect ratio                     : 2.40:1
  15. Frame rate mode                          : Constant
  16. Frame rate                               : 23.976 (24000/1001) FPS
  17. Color space                              : YUV
  18. Chroma subsampling                       : 4:2:0
  19. Bit depth                                : 8 bits
  20. Scan type                                : Progressive
  21. Bits/(Pixel*Frame)                       : 0.276
  22. Stream size                              : 3.28 GiB (75%)
  23. Writing library                          : x264 core 157 r2969 d4099dd
  24. Encoding settings                        : cabac=1 / ref=5 / deblock=1:-3:-3 / analyse=0x3:0x133 / me=umh / subme=9 / psy=1 / psy_rd=1.00:0.00 / mixed_ref=1 / me_range=16 / chroma_me=1 / trellis=2 / 8x8dct=1 / cqm=0 / deadzone=21,11 / fast_pskip=0 / chroma_qp_offset=-2 / threads=17 / lookahead_threads=1 / sliced_threads=0 / nr=0 / decimate=1 / interlaced=0 / bluray_compat=0 / constrained_intra=0 / bframes=3 / b_pyramid=2 / b_adapt=1 / b_bias=0 / direct=3 / weightb=1 / open_gop=0 / weightp=2 / keyint=240 / keyint_min=24 / scenecut=40 / intra_refresh=0 / rc_lookahead=50 / rc=2pass / mbtree=1 / bitrate=4535 / ratetol=1.0 / qcomp=0.60 / qpmin=0 / qpmax=69 / qpstep=4 / cplxblur=20.0 / qblur=0.5 / ip_ratio=1.40 / aq=1:1.00
  25. Language                                 : English
  26. Default                                  : Yes
  27. Forced                                   : No

  28. Audio
  29. ID                                       : 2
  30. Format                                   : DTS
  31. Format/Info                              : Digital Theater Systems
  32. Codec ID                                 : A_DTS
  33. Duration                                 : 1 h 43 min
  34. Bit rate mode                            : Constant
  35. Bit rate                                 : 1 509 kb/s
  36. Channel(s)                               : 6 channels
  37. Channel layout                           : C L R Ls Rs LFE
  38. Sampling rate                            : 48.0 kHz
  39. Frame rate                               : 93.750 FPS (512 SPF)
  40. Bit depth                                : 24 bits
  41. Compression mode                         : Lossy
  42. Stream size                              : 1.09 GiB (25%)
  43. Language                                 : Spanish
  44. Default                                  : Yes
  45. Forced                                   : No

  46. Menu
  47. 00:00:00.000                             : en:00:00:00.000
  48. 00:10:00.934                             : en:00:10:00.934
  49. 00:20:02.034                             : en:00:20:02.034
  50. 00:30:01.967                             : en:00:30:01.967
  51. 00:40:02.483                             : en:00:40:02.483
  52. 00:50:04.960                             : en:00:50:04.960
  53. 01:00:04.059                             : en:01:00:04.059
  54. 01:10:04.283                             : en:01:10:04.283
  55. 01:20:05.050                             : en:01:20:05.050
  56. 01:30:05.817                             : en:01:30:05.817
  57. 01:39:28.713                             : en:01:39:28.713
复制代码

山公/失控少年兵团 Monos.2019.SUBBED.720p.BluRay.x264-USURY 4.37GB-2.png






回复

使用道具 举报

懒得打字嘛,点击右侧快捷回复 【右侧内容,后台自定义】
您需要登录后才可以回帖 登录 | 立即加入

本版积分规则

Archiver|小黑屋| 蓝光电影网 |网站地图

Copyright © 2021 Comsenz Inc. Powered by 蓝光电影网

蓝光电影网

本站内容由用户自主分享和转载自互联网,转载目的在于传递更多信息,并不代表本网赞同其观点和对其真实性负责。

如有侵权、违反国家法律政策行为,请联系我们,我们会第一时间及时清除和处理!

举报反馈邮箱:[email protected]

快速回复 返回顶部 返回列表