找回密码

蓝光电影网

查看: 220|回复: 0

[喜剧] 倒霉姐 Jinxed.2013.1080p.WEBRip.x264-RARBG 1.32GB

[复制链接]
蓝光币
1022
发表于 2020-2-2 18:47:36 | 显示全部楼层 |阅读模式
倒霉姐 Jinxed.2013.1080p.WEBRip.x264-RARBG 1.32GB-1.png

译  名 倒霉姐
片  名 Jinxed
年  代 2013
产  地 美国
类  别 笑剧
语  言 英语
上映日期 2013-11-29(美国)
IMDb评分  6.6/10 from 1064 users
IMDb链接  https://www.imdb.com/title/tt2934844
豆瓣评分 6.4/10 from 41 users
豆瓣链接 https://movie.douban.com/subject/25781953/
导  演 斯蒂芬·赫瑞克 Stephen Herek
编  剧 尼尔·伊斯雷尔 Neal Israel / Aury Wallington
主  演 西娅拉·布拉沃 Ciara Bravo
       Jacob Bertrand
       Jack Griffo
       博尔克利·杜菲尔德 Burkely Duffield
       Elena Kampouris
       Donavon Stinson
       基冈·康纳·特雷西 Keegan Connor Tracy
       杰伊·布拉泽奥 Jay Brazeau
       Andrea Brooks
       Leisha Auyeung
       Devon Dalton
       马修·哈里逊 Matthew Harrison
       Celestine Hilechi
       Peter Kent
       Eric Son


标  签 笑剧 | 青春 | 美国 | 恋爱 | 剧情 | youth | warm | 魔幻

简  介  

  一个小女孩,总是由于各类倒霉的事儿而烦心。后来,她发现倒霉的不止她一个,她们家的人都很倒霉,本来这源自于她们家的一个诅咒。为了不倒霉到底,她决议找到废除诅咒的法子。 这部由美国著名导演斯蒂芬·赫瑞克于2014年建造的《倒霉姐》约请了雅各布.伯特兰 埃琳娜坎普里斯等明星介入,值得一看
  1. Video
  2. ID                                       : 1
  3. Format                                   : AVC
  4. Format/Info                              : Advanced Video Codec
  5. Format profile                           : [email protected]
  6. Format settings                          : CABAC / 4 Ref Frames
  7. Format settings, CABAC                   : Yes
  8. Format settings, Reference frames        : 4 frames
  9. Codec ID                                 : avc1
  10. Codec ID/Info                            : Advanced Video Coding
  11. Duration                                 : 1 h 9 min
  12. Bit rate                                 : 2 500 kb/s
  13. Width                                    : 1 916 pixels
  14. Height                                   : 1 076 pixels
  15. Display aspect ratio                     : 16:9
  16. Frame rate mode                          : Constant
  17. Frame rate                               : 23.976 (23976/1000) FPS
  18. Color space                              : YUV
  19. Chroma subsampling                       : 4:2:0
  20. Bit depth                                : 8 bits
  21. Scan type                                : Progressive
  22. Bits/(Pixel*Frame)                       : 0.051
  23. Stream size                              : 1.21 GiB (92%)
  24. Writing library                          : x264 core 152 r2851M ba24899
  25. Encoding settings                        : cabac=1 / ref=4 / deblock=1:-1:-1 / analyse=0x3:0x113 / me=umh / subme=9 / psy=1 / psy_rd=1.00:0.15 / mixed_ref=1 / me_range=24 / chroma_me=1 / trellis=2 / 8x8dct=1 / cqm=0 / deadzone=21,11 / fast_pskip=1 / chroma_qp_offset=-3 / threads=16 / lookahead_threads=4 / sliced_threads=0 / nr=0 / decimate=1 / interlaced=0 / bluray_compat=0 / constrained_intra=0 / bframes=3 / b_pyramid=2 / b_adapt=2 / b_bias=0 / direct=3 / weightb=1 / open_gop=0 / weightp=2 / keyint=250 / keyint_min=25 / scenecut=40 / intra_refresh=0 / rc_lookahead=50 / rc=2pass / mbtree=1 / bitrate=2500 / ratetol=1.0 / qcomp=0.60 / qpmin=0 / qpmax=69 / qpstep=4 / cplxblur=20.0 / qblur=0.5 / vbv_maxrate=31250 / vbv_bufsize=31250 / nal_hrd=none / filler=0 / ip_ratio=1.40 / aq=3:1.00
  26. Encoded date                             : UTC 2020-02-02 07:03:06
  27. Tagged date                              : UTC 2020-02-02 07:03:06
  28. Codec configuration box                  : avcC

  29. Audio
  30. ID                                       : 2
  31. Format                                   : AAC LC
  32. Format/Info                              : Advanced Audio Codec Low Complexity
  33. Codec ID                                 : mp4a-40-2
  34. Duration                                 : 1 h 9 min
  35. Bit rate mode                            : Constant
  36. Bit rate                                 : 224 kb/s
  37. Channel(s)                               : 6 channels
  38. Channel layout                           : C L R Ls Rs LFE
  39. Sampling rate                            : 48.0 kHz
  40. Frame rate                               : 46.875 FPS (1024 SPF)
  41. Compression mode                         : Lossy
  42. Stream size                              : 111 MiB (8%)
  43. Language                                 : English
  44. Default                                  : Yes
  45. Alternate group                          : 1
  46. Encoded date                             : UTC 2020-02-02 07:03:06
  47. Tagged date                              : UTC 2020-02-02 07:03:06
复制代码

倒霉姐 Jinxed.2013.1080p.WEBRip.x264-RARBG 1.32GB-2.png 倒霉姐 Jinxed.2013.1080p.WEBRip.x264-RARBG 1.32GB-3.png 倒霉姐 Jinxed.2013.1080p.WEBRip.x264-RARBG 1.32GB-4.png






回复

使用道具 举报

懒得打字嘛,点击右侧快捷回复 【右侧内容,后台自定义】
您需要登录后才可以回帖 登录 | 立即加入

本版积分规则

Archiver|小黑屋| 蓝光电影网 |网站地图

Copyright © 2021 Comsenz Inc. Powered by 蓝光电影网

蓝光电影网

本站内容由用户自主分享和转载自互联网,转载目的在于传递更多信息,并不代表本网赞同其观点和对其真实性负责。

如有侵权、违反国家法律政策行为,请联系我们,我们会第一时间及时清除和处理!

举报反馈邮箱:[email protected]

快速回复 返回顶部 返回列表