找回密码

蓝光电影网

查看: 367|回复: 0

[剧情] 暴露的龙 Naked.Dragon.2014.720p.AMZN.WEBRip.DDP2.0.x264-TEPES 1.35GB

[复制链接]
蓝光币
953
发表于 2020-2-3 12:31:12 | 显示全部楼层 |阅读模式
表露的龙 Naked.Dragon.2014.720p.AMZN.WEBRip.DDP2.0.x264-TEPES 1.35GB-1.png

译  名 表露的龙
片  名 Naked Dragon
年  代 2014
产  地 美国
类  别 剧情 / 恋爱
语  言 英语
IMDb评分  5.1/10 from 83 users
IMDb链接  https://www.imdb.com/title/tt3587890
豆瓣评分 0/10 from 0 users
豆瓣链接 https://movie.douban.com/subject/26326700/
片  长 94分钟
导  演 G.A. Hauser
编  剧 G.A. Hauser
主  演 Jesse Seann Atkinson
       Davon Williams
       Shane Keough


标  签 同性 | 美国 | 犯罪 | 2014 | 恋爱 | 剧情 | 露点 | 表露的龙

简  介  

  In the worst serial killer crime spree in years, the 'Dragon' is hunting young Asian men as his victims. FBI Agent Robbie Taylor has been assigned to use his skills as a psychic to help solve the case and find out the identity of the madman. Los Angeles Police Officer Dave Harris, a rookie black cop meets up with the handsome FBI agent on one of the gruesome crime scenes. The two are immediately sexually attracted to each other and begin a secret affair that keeps them sane in the middle of all the madness. As the corpses keep piling up, their passion and love grow. Will they outwit the Dragon? Or will he get away with murder? The two men hope they survive the battle of wits and come out of the crisis alive. Written by G.A. Hauser
  1. Video
  2. ID                                       : 1
  3. Format                                   : AVC
  4. Format/Info                              : Advanced Video Codec
  5. Format profile                           : [email protected]
  6. Format settings                          : CABAC / 4 Ref Frames
  7. Format settings, CABAC                   : Yes
  8. Format settings, Reference frames        : 4 frames
  9. Codec ID                                 : V_MPEG4/ISO/AVC
  10. Duration                                 : 1 h 34 min
  11. Bit rate mode                            : Constant
  12. Bit rate                                 : 1 830 kb/s
  13. Nominal bit rate                         : 6 000 kb/s
  14. Width                                    : 1 280 pixels
  15. Height                                   : 720 pixels
  16. Display aspect ratio                     : 16:9
  17. Frame rate mode                          : Constant
  18. Frame rate                               : 23.976 (24000/1001) FPS
  19. Color space                              : YUV
  20. Chroma subsampling                       : 4:2:0
  21. Bit depth                                : 8 bits
  22. Scan type                                : Progressive
  23. Bits/(Pixel*Frame)                       : 0.083
  24. Stream size                              : 1.21 GiB (89%)
  25. Default                                  : Yes
  26. Forced                                   : No
  27. Color range                              : Limited
  28. Color primaries                          : BT.709
  29. Transfer characteristics                 : BT.709
  30. Matrix coefficients                      : BT.709

  31. Audio
  32. ID                                       : 2
  33. Format                                   : E-AC-3
  34. Format/Info                              : Enhanced AC-3
  35. Commercial name                          : Dolby Digital Plus
  36. Codec ID                                 : A_EAC3
  37. Duration                                 : 1 h 34 min
  38. Bit rate mode                            : Constant
  39. Bit rate                                 : 224 kb/s
  40. Channel(s)                               : 2 channels
  41. Channel layout                           : L R
  42. Sampling rate                            : 48.0 kHz
  43. Frame rate                               : 31.250 FPS (1536 SPF)
  44. Compression mode                         : Lossy
  45. Stream size                              : 151 MiB (11%)
  46. Language                                 : English
  47. Service kind                             : Complete Main
  48. Default                                  : Yes
  49. Forced                                   : No

  50. Text
  51. ID                                       : 3
  52. Format                                   : UTF-8
  53. Codec ID                                 : S_TEXT/UTF8
  54. Codec ID/Info                            : UTF-8 Plain Text
  55. Duration                                 : 1 h 32 min
  56. Bit rate                                 : 55 b/s
  57. Count of elements                        : 1367
  58. Stream size                              : 37.8 KiB (0%)
  59. Title                                    : SDH
  60. Language                                 : English
  61. Default                                  : No
  62. Forced                                   : No
复制代码

表露的龙 Naked.Dragon.2014.720p.AMZN.WEBRip.DDP2.0.x264-TEPES 1.35GB-2.png 表露的龙 Naked.Dragon.2014.720p.AMZN.WEBRip.DDP2.0.x264-TEPES 1.35GB-3.png 表露的龙 Naked.Dragon.2014.720p.AMZN.WEBRip.DDP2.0.x264-TEPES 1.35GB-4.png






回复

使用道具 举报

懒得打字嘛,点击右侧快捷回复 【右侧内容,后台自定义】
您需要登录后才可以回帖 登录 | 立即加入

本版积分规则

Archiver|小黑屋| 蓝光电影网 |网站地图

Copyright © 2021 Comsenz Inc. Powered by 蓝光电影网

蓝光电影网

本站内容由用户自主分享和转载自互联网,转载目的在于传递更多信息,并不代表本网赞同其观点和对其真实性负责。

如有侵权、违反国家法律政策行为,请联系我们,我们会第一时间及时清除和处理!

举报反馈邮箱:[email protected]

快速回复 返回顶部 返回列表