找回密码

蓝光电影网

查看: 1004|回复: 2

[喜剧] 月滿軒尼詩 Crossing.Hennessy.2010.CHINESE.1080p.BluRay.x264.DTS-PTer 10.78GB

[复制链接]
蓝光币
886
发表于 2020-2-3 12:32:01 | 显示全部楼层 |阅读模式
月滿軒尼詩 Crossing.Hennessy.2010.CHINESE.1080p.BluRay.x264.DTS-PTer 10.78GB-1.png
译  名 月满轩尼诗 / Crossing Hennessy / 月满轩尼斯
片  名 月滿軒尼詩
年  代 2010
产  地 中国香港
类  别 笑剧 / 恋爱
语  言 粤语 / 汉语普通话
上映日期 2010-03-21(中国香港电影节) / 2010-04-01(中国香港) / 2010-04-02(中国大陆)
IMDb评分  6.3/10 from 542 users
IMDb链接  https://www.imdb.com/title/tt1447800
豆瓣评分 6.7/10 from 79690 users
豆瓣链接 https://movie.douban.com/subject/3777800/
片  长 105分钟
导  演 岸西 Ivy Ho
编  剧 岸西 Ivy Ho
主  演 张学友 Jacky Cheung
       汤唯 Wei Tang
       鲍起静  Hee Ching Paw
       李修贤 Danny Lee
       安志杰 Andy On
       张可颐 Maggie Cheung Ho Yee
       朱咪咪 Mimi Chu
       郭峰 Fung Kwok
       林威
       卢冠廷 Lowell Lo


标  签 汤唯 | 张学友 | 香港电影 | 香港 | 恋爱 | 月满轩尼诗 | 岸西 | 2010

简  介  

  香港湾仔,电器行老板娘(鲍起静 饰)丈夫早亡,她和妹妹配合抚养儿子阿来(张学友 饰)。但后者整天沉迷侦察小说,41岁仍然单身,还常会跟设想中的亡父对话。在一场相亲宴上,阿来见到了洁具行售货员爱莲(汤唯 饰),开初有点为难,后来在茶餐厅,两人说笑风生。不外,爱莲一向挂念狱中的古惑仔男友阿旭(安志杰 饰),所以对这门亲事只是对付。阿来一样接到了前女友(张可颐 饰)的约请,出任男模,两人似乎重新擦出了火花。虽然阿来和爱莲各怀苦衷,但两人却在轩尼诗道再度重逢。与此同时,老板娘却由于报税之事跟老相好(李修贤 饰)闹了别扭,而且,一向蒙在鼓里的她还目击了阿旭与爱莲牵手逛街。承受不住冲击的她完全解体、住进了医院。尔后,阿来跟前女友,爱莲跟阿旭的豪情却发生了变化……

获奖情况  

  第47届台北金马影展(2010)
  金马奖 最好女配角(提名) 汤唯

  第30届香港电影金像奖(2011)
  最好编剧(提名) 岸西
  最好男配角(提名) 张学友
  最好女配角(提名) 汤唯
  最好女配角(提名) 鲍起静 / 朱咪咪
  新晋导演(提名) 岸西

  第11届华语电影传媒大奖(2011)
  最好女配角 汤唯
  最好女配角(提名) 鲍起静
  1. Video
  2. ID                                       : 1
  3. Format                                   : AVC
  4. Format/Info                              : Advanced Video Codec
  5. Format profile                           : [email protected]
  6. Format settings                          : CABAC / 4 Ref Frames
  7. Format settings, CABAC                   : Yes
  8. Format settings, Reference frames        : 4 frames
  9. Codec ID                                 : V_MPEG4/ISO/AVC
  10. Duration                                 : 1 h 44 min
  11. Bit rate                                 : 13.2 Mb/s
  12. Width                                    : 1 920 pixels
  13. Height                                   : 1 080 pixels
  14. Display aspect ratio                     : 16:9
  15. Frame rate mode                          : Constant
  16. Frame rate                               : 23.976 (24000/1001) FPS
  17. Color space                              : YUV
  18. Chroma subsampling                       : 4:2:0
  19. Bit depth                                : 8 bits
  20. Scan type                                : Progressive
  21. Bits/(Pixel*Frame)                       : 0.266
  22. Stream size                              : 9.67 GiB (90%)
  23. Writing library                          : x264 core 158 r2984 3759fcb
  24. Encoding settings                        : cabac=1 / ref=4 / deblock=1:-3:-3 / analyse=0x3:0x133 / me=umh / subme=11 / psy=1 / psy_rd=1.02:0.00 / mixed_ref=1 / me_range=32 / chroma_me=1 / trellis=2 / 8x8dct=1 / cqm=0 / deadzone=21,11 / fast_pskip=0 / chroma_qp_offset=-2 / threads=34 / lookahead_threads=5 / sliced_threads=0 / nr=0 / decimate=0 / interlaced=0 / bluray_compat=0 / constrained_intra=0 / bframes=9 / b_pyramid=2 / b_adapt=2 / b_bias=0 / direct=3 / weightb=1 / open_gop=0 / weightp=2 / keyint=250 / keyint_min=23 / scenecut=40 / intra_refresh=0 / rc_lookahead=250 / rc=crf / mbtree=0 / crf=18.5 / qcomp=0.60 / qpmin=0 / qpmax=69 / qpstep=4 / vbv_maxrate=62500 / vbv_bufsize=78125 / crf_max=0.0 / nal_hrd=none / filler=0 / ip_ratio=1.30 / pb_ratio=1.20 / aq=3:0.80
  25. Language                                 : Chinese
  26. Default                                  : Yes
  27. Forced                                   : No
  28. Color range                              : Limited
  29. Color primaries                          : BT.709
  30. Matrix coefficients                      : BT.709

  31. Audio
  32. ID                                       : 2
  33. Format                                   : DTS
  34. Format/Info                              : Digital Theater Systems
  35. Codec ID                                 : A_DTS
  36. Duration                                 : 1 h 44 min
  37. Bit rate mode                            : Constant
  38. Bit rate                                 : 1 509 kb/s
  39. Channel(s)                               : 6 channels
  40. Channel layout                           : C L R Ls Rs LFE
  41. Sampling rate                            : 48.0 kHz
  42. Frame rate                               : 93.750 FPS (512 SPF)
  43. Bit depth                                : 16 bits
  44. Compression mode                         : Lossy
  45. Stream size                              : 1.10 GiB (10%)
  46. Language                                 : Chinese
  47. Default                                  : Yes
  48. Forced                                   : No

  49. Text #1
  50. ID                                       : 3
  51. Format                                   : UTF-8
  52. Codec ID                                 : S_TEXT/UTF8
  53. Codec ID/Info                            : UTF-8 Plain Text
  54. Duration                                 : 1 h 39 min
  55. Bit rate                                 : 52 b/s
  56. Count of elements                        : 1178
  57. Stream size                              : 38.3 KiB (0%)
  58. Language                                 : English
  59. Default                                  : Yes
  60. Forced                                   : No

  61. Text #2
  62. ID                                       : 4
  63. Format                                   : UTF-8
  64. Codec ID                                 : S_TEXT/UTF8
  65. Codec ID/Info                            : UTF-8 Plain Text
  66. Duration                                 : 1 h 39 min
  67. Bit rate                                 : 41 b/s
  68. Count of elements                        : 1202
  69. Stream size                              : 30.3 KiB (0%)
  70. Title                                    : CHS
  71. Language                                 : Chinese
  72. Default                                  : No
  73. Forced                                   : No

  74. Text #3
  75. ID                                       : 5
  76. Format                                   : UTF-8
  77. Codec ID                                 : S_TEXT/UTF8
  78. Codec ID/Info                            : UTF-8 Plain Text
  79. Duration                                 : 1 h 39 min
  80. Bit rate                                 : 41 b/s
  81. Count of elements                        : 1202
  82. Stream size                              : 30.3 KiB (0%)
  83. Title                                    : CHT
  84. Language                                 : Chinese
  85. Default                                  : No
  86. Forced                                   : No

  87. Menu
  88. 00:00:00.000                             : en:Chapter 1
  89. 00:10:05.438                             : en:Chapter 2
  90. 00:19:15.654                             : en:Chapter 3
  91. 00:27:34.277                             : en:Chapter 4
  92. 00:35:48.437                             : en:Chapter 5
  93. 00:42:07.483                             : en:Chapter 6
  94. 00:52:22.055                             : en:Chapter 7
  95. 01:00:14.068                             : en:Chapter 8
  96. 01:10:26.597                             : en:Chapter 9
  97. 01:22:37.911                             : en:Chapter 10
  98. 01:32:18.824                             : en:Chapter 11
  99. 01:41:15.152                             : en:Chapter 12
复制代码

月滿軒尼詩 Crossing.Hennessy.2010.CHINESE.1080p.BluRay.x264.DTS-PTer 10.78GB-2.png 月滿軒尼詩 Crossing.Hennessy.2010.CHINESE.1080p.BluRay.x264.DTS-PTer 10.78GB-3.png 月滿軒尼詩 Crossing.Hennessy.2010.CHINESE.1080p.BluRay.x264.DTS-PTer 10.78GB-4.png




回复

使用道具 举报

蓝光币
860
发表于 2020-2-3 16:30:37 | 显示全部楼层
谢谢楼主无私分享。
回复 支持 反对

使用道具 举报

蓝光币
552
发表于 2020-2-4 11:30:52 | 显示全部楼层

既然你诚信诚意的推荐了,那我就勉为其难的看看吧!蓝光电影网不走平凡路。
回复 支持 反对

使用道具 举报

懒得打字嘛,点击右侧快捷回复 【右侧内容,后台自定义】
您需要登录后才可以回帖 登录 | 立即加入

本版积分规则

Archiver|小黑屋| 蓝光电影网 |网站地图

Copyright © 2021 Comsenz Inc. Powered by 蓝光电影网

蓝光电影网

本站内容由用户自主分享和转载自互联网,转载目的在于传递更多信息,并不代表本网赞同其观点和对其真实性负责。

如有侵权、违反国家法律政策行为,请联系我们,我们会第一时间及时清除和处理!

举报反馈邮箱:[email protected]

快速回复 返回顶部 返回列表