找回密码

蓝光电影网

查看: 2273|回复: 12

[惊悚] 强行入室 Forced.Entry.1976.1080p.BluRay.x264-HANDJOB 6.18GB

[复制链接]
蓝光币
886
发表于 2020-2-3 12:33:02 | 显示全部楼层 |阅读模式
强行入室 Forced.Entry.1976.1080p.BluRay.x264-HANDJOB 6.18GB-1.png

译  名 强行入室 / Last Victim / 强入
片  名 Forced Entry
年  代 1976
产  地 美国
类  别 惊悚 / 可骇
语  言 英语
上映日期 1976-06-23(美国)
IMDb评分  3.8/10 from 361 users
IMDb链接  https://www.imdb.com/title/tt0087282
豆瓣评分 4.8/10 from 116 users
豆瓣链接 https://movie.douban.com/subject/3684393/
片  长 88分钟
导  演 Jim Sotos
编  剧 Henry Scarpelli
主  演 坦娅·罗伯茨 Tanya Roberts
       Ron Max
       南茜·艾伦 Nancy Allen
       Brian Freilino
       Vasco Valladeres
       Robin Leslie
       Billy Longo
       迈克尔·图齐 Michael Tucci
       Beth Carlton
       David Kerman
       Frankie Verroca
       Michele Miles
       Glenn Scarpelli
       Amy Levitan
       Tammy Beker


标  签 美国 | 可骇 | 美国电影 | 1975 | 惊悚 | 电影 | 1970s. | 1970s

简  介  

  暂无相关剧情先容
  1. Video
  2. ID                                       : 1
  3. Format                                   : AVC
  4. Format/Info                              : Advanced Video Codec
  5. Format profile                           : [email protected]
  6. Format settings                          : CABAC / 4 Ref Frames
  7. Format settings, CABAC                   : Yes
  8. Format settings, Reference frames        : 4 frames
  9. Codec ID                                 : V_MPEG4/ISO/AVC
  10. Duration                                 : 1 h 12 min
  11. Bit rate                                 : 11.8 Mb/s
  12. Width                                    : 1 916 pixels
  13. Height                                   : 1 080 pixels
  14. Display aspect ratio                     : 16:9
  15. Frame rate mode                          : Constant
  16. Frame rate                               : 23.976 (24000/1001) FPS
  17. Color space                              : YUV
  18. Chroma subsampling                       : 4:2:0
  19. Bit depth                                : 8 bits
  20. Scan type                                : Progressive
  21. Bits/(Pixel*Frame)                       : 0.238
  22. Stream size                              : 5.94 GiB (96%)
  23. Writing library                          : x264 core 148 r2643 5c65704
  24. Encoding settings                        : cabac=1 / ref=4 / deblock=1:-2:-2 / analyse=0x3:0x133 / me=umh / subme=9 / psy=1 / psy_rd=1.00:0.00 / mixed_ref=1 / me_range=24 / chroma_me=1 / trellis=2 / 8x8dct=1 / cqm=0 / deadzone=21,11 / fast_pskip=0 / chroma_qp_offset=-2 / threads=12 / lookahead_threads=1 / sliced_threads=0 / nr=0 / decimate=1 / interlaced=0 / bluray_compat=0 / constrained_intra=0 / bframes=6 / b_pyramid=2 / b_adapt=2 / b_bias=0 / direct=3 / weightb=1 / open_gop=0 / weightp=2 / keyint=240 / keyint_min=24 / scenecut=40 / intra_refresh=0 / rc_lookahead=50 / rc=crf / mbtree=0 / crf=19.0 / qcomp=0.60 / qpmin=0 / qpmax=69 / qpstep=4 / vbv_maxrate=62500 / vbv_bufsize=78125 / crf_max=0.0 / nal_hrd=none / filler=0 / ip_ratio=1.40 / pb_ratio=1.30 / aq=3:0.80
  25. Default                                  : Yes
  26. Forced                                   : No
  27. Color range                              : Limited
  28. Color primaries                          : BT.709
  29. Transfer characteristics                 : BT.709
  30. Matrix coefficients                      : BT.709

  31. Audio
  32. ID                                       : 2
  33. Format                                   : FLAC
  34. Format/Info                              : Free Lossless Audio Codec
  35. Codec ID                                 : A_FLAC
  36. Duration                                 : 1 h 12 min
  37. Bit rate mode                            : Variable
  38. Bit rate                                 : 458 kb/s
  39. Channel(s)                               : 2 channels
  40. Channel layout                           : L R
  41. Sampling rate                            : 48.0 kHz
  42. Frame rate                               : 11.719 FPS (4096 SPF)
  43. Bit depth                                : 16 bits
  44. Compression mode                         : Lossless
  45. Stream size                              : 237 MiB (4%)
  46. Writing library                          : libFLAC 1.2.1 (UTC 2007-09-17)
  47. Language                                 : English
  48. Default                                  : Yes
  49. Forced                                   : No

  50. Menu
  51. 00:00:00.000                             : :Chapter 1
  52. 00:08:23.169                             : :Chapter 2
  53. 00:15:29.637                             : :Chapter 3
  54. 00:24:06.278                             : :Chapter 4
  55. 00:29:40.821                             : :Chapter 5
  56. 00:37:46.222                             : :Chapter 6
  57. 00:42:17.035                             : :Chapter 7
  58. 00:51:45.227                             : :Chapter 8
  59. 01:00:27.457                             : :Chapter 9
  60. 01:11:15.521                             : :Chapter 10
复制代码

强行入室 Forced.Entry.1976.1080p.BluRay.x264-HANDJOB 6.18GB-2.png 强行入室 Forced.Entry.1976.1080p.BluRay.x264-HANDJOB 6.18GB-3.png 强行入室 Forced.Entry.1976.1080p.BluRay.x264-HANDJOB 6.18GB-4.png






回复

使用道具 举报

懒得打字嘛,点击右侧快捷回复 【右侧内容,后台自定义】
您需要登录后才可以回帖 登录 | 立即加入

本版积分规则

Archiver|小黑屋| 蓝光电影网 |网站地图

Copyright © 2021 Comsenz Inc. Powered by 蓝光电影网

蓝光电影网

本站内容由用户自主分享和转载自互联网,转载目的在于传递更多信息,并不代表本网赞同其观点和对其真实性负责。

如有侵权、违反国家法律政策行为,请联系我们,我们会第一时间及时清除和处理!

举报反馈邮箱:[email protected]

快速回复 返回顶部 返回列表