找回密码

蓝光电影网

查看: 563|回复: 0

[纪录] 托尼·克罗斯 Toni.Kroos.2019.GERMAN.ENSUBBED.1080p.AMZN.WEBRip.DDP5.1.x264-iKA 6.72GB

[复制链接]
蓝光币
1020
发表于 2020-2-3 12:35:17 | 显示全部楼层 |阅读模式
托尼·克罗斯 Toni.Kroos.2019.GERMAN.ENSUBBED.1080p.AMZN.WEBRip.DDP5.1.x264-iKA 6.72GB-1.png

译  名 托尼·克罗斯 / Kroos / 克罗斯
片  名 Toni Kroos
年  代 2019
产  地 德国
类  别 记载片
语  言 德语 / 英语 / 法语 / 西班牙语
上映日期 2019-07-04(德国)
IMDb评分  6.6/10 from 263 users
IMDb链接  https://www.imdb.com/title/tt10375886
豆瓣评分 9.1/10 from 104 users
豆瓣链接 https://movie.douban.com/subject/33474419/
片  长 113分钟
导  演 Manfred Oldenburg
主  演 托尼·克罗斯 Toni Kroos
       加雷斯·贝尔 Gareth Bale
       何塞普·瓜迪奥拉 Josep Guardiola
       雅普·海因克斯 Jupp Heynckes
       乌利·赫内斯 Ulrich Hoene?
       米罗斯拉夫·克洛泽 Miroslav Klose
       约阿希姆·勒夫 Joachim L?w
       卢卡·莫德里奇 Luka Modric
       弗洛伦蒂诺·佩雷斯 Florentino Pérez
       塞尔吉奥·拉莫斯 Sergio Ramos
       马蒂亚斯·萨默尔 Matthias Sammer
       罗比·威廉姆斯 Robbie Williams
       奇内丁·齐达内 Zinédine Zidane
       伊德里斯·艾尔巴 Idris Elba
       尤尔根·克林斯曼 Jürgen Klinsmann
       海克·玛卡琪 Heike Makatsch
       巴斯蒂安·施魏因施泰格 Bastian Schweinsteiger
       Sascha Breese
       Casemiro
       Wolfram Eilenberger
       Max Geis
       Dirk Hebel
       Raphael Honigstein
       Paul Ingendaay
       Amelie Kroos
       Birgit Kroos
       Marcel Reif
       Elton
       Kai Pflaume


标  签 记载片 | 德国 | 体育 | 列传 | 皇家马德里 | 德国记载片 | 2019 | 托尼克罗斯

简  介  

  皇马主力托尼·克罗斯记载片[克罗斯](Kroos,暂译)首发预告。影片将跟随克罗斯从格赖夫斯瓦尔德到马德里的脚步,从拜仁慕尼黑、勒沃库森到皇家马德里。齐达内、克洛泽、莫德里奇等均出镜畅聊。克洛泽也将回忆2014年天下杯德国夺冠,2016-2018皇马三连冠等高光时辰,也会重现在拜仁、2012年欧联决赛、2018年俄罗斯天下杯等低谷时辰。影片由Manfred Oldenburg执导,将于7月4日德国上映。
  1. Video
  2. ID                                       : 1
  3. Format                                   : AVC
  4. Format/Info                              : Advanced Video Codec
  5. Format profile                           : [email protected]
  6. Format settings                          : CABAC / 4 Ref Frames
  7. Format settings, CABAC                   : Yes
  8. Format settings, Reference frames        : 4 frames
  9. Codec ID                                 : V_MPEG4/ISO/AVC
  10. Duration                                 : 1 h 54 min
  11. Bit rate mode                            : Constant
  12. Bit rate                                 : 7 776 kb/s
  13. Nominal bit rate                         : 10 000 kb/s
  14. Width                                    : 1 920 pixels
  15. Height                                   : 800 pixels
  16. Display aspect ratio                     : 2.40:1
  17. Frame rate mode                          : Constant
  18. Frame rate                               : 25.000 FPS
  19. Color space                              : YUV
  20. Chroma subsampling                       : 4:2:0
  21. Bit depth                                : 8 bits
  22. Scan type                                : Progressive
  23. Bits/(Pixel*Frame)                       : 0.203
  24. Stream size                              : 6.21 GiB (92%)
  25. Default                                  : Yes
  26. Forced                                   : No
  27. Color range                              : Limited
  28. Color primaries                          : BT.709
  29. Transfer characteristics                 : BT.709
  30. Matrix coefficients                      : BT.709

  31. Audio
  32. ID                                       : 2
  33. Format                                   : E-AC-3
  34. Format/Info                              : Enhanced AC-3
  35. Commercial name                          : Dolby Digital Plus
  36. Codec ID                                 : A_EAC3
  37. Duration                                 : 1 h 54 min
  38. Bit rate mode                            : Constant
  39. Bit rate                                 : 640 kb/s
  40. Channel(s)                               : 6 channels
  41. Channel layout                           : L R C LFE Ls Rs
  42. Sampling rate                            : 48.0 kHz
  43. Frame rate                               : 31.250 FPS (1536 SPF)
  44. Compression mode                         : Lossy
  45. Stream size                              : 523 MiB (8%)
  46. Language                                 : German
  47. Service kind                             : Complete Main
  48. Default                                  : Yes
  49. Forced                                   : No

  50. Text #1
  51. ID                                       : 3
  52. Format                                   : UTF-8
  53. Codec ID                                 : S_TEXT/UTF8
  54. Codec ID/Info                            : UTF-8 Plain Text
  55. Duration                                 : 1 h 46 min
  56. Bit rate                                 : 14 b/s
  57. Count of elements                        : 312
  58. Stream size                              : 10.9 KiB (0%)
  59. Language                                 : German
  60. Default                                  : No
  61. Forced                                   : No

  62. Text #2
  63. ID                                       : 4
  64. Format                                   : UTF-8
  65. Codec ID                                 : S_TEXT/UTF8
  66. Codec ID/Info                            : UTF-8 Plain Text
  67. Duration                                 : 1 h 51 min
  68. Bit rate                                 : 63 b/s
  69. Count of elements                        : 1384
  70. Stream size                              : 52.1 KiB (0%)
  71. Title                                    : SDH
  72. Language                                 : English
  73. Default                                  : No
  74. Forced                                   : No

  75. Text #3
  76. ID                                       : 5
  77. Format                                   : UTF-8
  78. Codec ID                                 : S_TEXT/UTF8
  79. Codec ID/Info                            : UTF-8 Plain Text
  80. Duration                                 : 1 h 51 min
  81. Bit rate                                 : 59 b/s
  82. Count of elements                        : 1352
  83. Stream size                              : 48.5 KiB (0%)
  84. Language                                 : Spanish
  85. Default                                  : No
  86. Forced                                   : No

  87. Text #4
  88. ID                                       : 6
  89. Format                                   : UTF-8
  90. Codec ID                                 : S_TEXT/UTF8
  91. Codec ID/Info                            : UTF-8 Plain Text
  92. Duration                                 : 1 h 51 min
  93. Bit rate                                 : 71 b/s
  94. Count of elements                        : 1421
  95. Stream size                              : 58.2 KiB (0%)
  96. Language                                 : French
  97. Default                                  : No
  98. Forced                                   : No

  99. Text #5
  100. ID                                       : 7
  101. Format                                   : UTF-8
  102. Codec ID                                 : S_TEXT/UTF8
  103. Codec ID/Info                            : UTF-8 Plain Text
  104. Duration                                 : 1 h 51 min
  105. Bit rate                                 : 72 b/s
  106. Count of elements                        : 1432
  107. Stream size                              : 59.4 KiB (0%)
  108. Language                                 : Japanese
  109. Default                                  : No
  110. Forced                                   : No

  111. Text #6
  112. ID                                       : 8
  113. Format                                   : UTF-8
  114. Codec ID                                 : S_TEXT/UTF8
  115. Codec ID/Info                            : UTF-8 Plain Text
  116. Duration                                 : 1 h 51 min
  117. Bit rate                                 : 63 b/s
  118. Count of elements                        : 1475
  119. Stream size                              : 51.9 KiB (0%)
  120. Language                                 : Portuguese
  121. Default                                  : No
  122. Forced                                   : No
复制代码

托尼·克罗斯 Toni.Kroos.2019.GERMAN.ENSUBBED.1080p.AMZN.WEBRip.DDP5.1.x264-iKA 6.72GB-2.png 托尼·克罗斯 Toni.Kroos.2019.GERMAN.ENSUBBED.1080p.AMZN.WEBRip.DDP5.1.x264-iKA 6.72GB-1.png 托尼·克罗斯 Toni.Kroos.2019.GERMAN.ENSUBBED.1080p.AMZN.WEBRip.DDP5.1.x264-iKA 6.72GB-4.png






回复

使用道具 举报

懒得打字嘛,点击右侧快捷回复 【右侧内容,后台自定义】
您需要登录后才可以回帖 登录 | 立即加入

本版积分规则

Archiver|小黑屋| 蓝光电影网 |网站地图

Copyright © 2021 Comsenz Inc. Powered by 蓝光电影网

蓝光电影网

本站内容由用户自主分享和转载自互联网,转载目的在于传递更多信息,并不代表本网赞同其观点和对其真实性负责。

如有侵权、违反国家法律政策行为,请联系我们,我们会第一时间及时清除和处理!

举报反馈邮箱:[email protected]

快速回复 返回顶部 返回列表