找回密码

蓝光电影网

查看: 244|回复: 0

[剧情] 原钻/未切割宝石 Uncut.Gems.2019.720p.NF.WEB.DDP5.1.Atmos.x264-NTb 8.07GB

[复制链接]
蓝光币
1020
发表于 2020-2-3 12:36:48 | 显示全部楼层 |阅读模式
原钻/未切割宝石 Uncut.Gems.2019.720p.NF.WEB.DDP5.1.Atmos.x264-NTb 8.07GB-1.png

译  名 原钻 / 未切割宝石 / 未切割的宝石 / 未切割的钻石 / 未琢之石(豆友译名)
片  名 Uncut Gems
年  代 2019
产  地 美国
类  别 剧情 / 笑剧 / 犯罪
语  言 英语
上映日期 2019-08-30(特柳赖德电影节) / 2019-12-25(美国) / 2020-01-31(Netflix)
IMDb评分  8.0/10 from 33040 users
IMDb链接  https://www.imdb.com/title/tt5727208
豆瓣评分 7.2/10 from 6475 users
豆瓣链接 https://movie.douban.com/subject/27045860/
片  长 135分钟
导  演 本·萨弗迪 Ben Safdie / 约书亚·萨弗迪 Joshua Safdie
编  剧 罗纳德·布隆斯坦 Ronald Bronstein / 本·萨弗迪 Ben Safdie / 约书亚·萨弗迪 Joshua Safdie
主  演 亚当·桑德勒 Adam Sandler
       茱莉娅·福克斯 Julia Fox
       凯文·加内特 Kevin Garnett
       威肯 The Weeknd
       伊迪娜·门泽尔 Idina Menzel
       乔纳森·阿兰巴耶夫 Jonathan Aranbayev
       雅各布·伊吉尔斯基 Jacob Igielski
       诺亚·费舍尔 Noa Fisher
       帕洛玛·艾尔瑟瑟 Paloma Elsesser
       勒凯斯·斯坦菲尔德 Lakeith Stanfield
       埃里克·博高森 Eric Bogosian
       基思·威廉姆斯·理查兹 Keith Williams Richards
       汤米·科米尼克 Tommy Kominik
       路易·安东尼·阿里亚斯 Louis Anthony Arias
       肖恩·林金 Sean Ringgold
       贾德·赫希 Judd Hirsch
       约翰·阿莫斯 John Amos
       布莱斯·科里根 Blaise Corrigan
       罗比·德拉费勒 Robbie DeRaffele
       安赫·道格 Anh Duong
       迈克·弗朗西萨 Mike Francesa
       庞·克莱门捷夫 Pom Klementieff
       娜塔莎·雷昂 Natasha Lyonne
       乔恩·内卡杰 Jon Necaj
       尼克·波托兰宁 Nick Poltoranin
       杰克·莱恩 Jake Ryan
       蒂尔达·斯文顿 Tilda Swinton


标  签 美国 | 犯罪 | 2019 | 剧情 | 黑色诙谐 | 悬疑 | 笑剧 | 惊悚

简  介  

  影片报告了一位纽约钻石店老板Howard Ratner(亚当·桑德勒饰),他嗜赌成瘾,婚姻朝不保夕,还有一个对他不虔诚的女友。Howard Ratner欠赌徒(埃里克勃格森饰)钱,而打手们也一向威胁着让他还钱。当他买了一批代价数百万美圆的稀有的未切割埃塞俄比亚卵白石,他感觉自己的霉运会就此终结。这些石头原本是筹算用做拍卖的,可是当波士顿凯尔特人超级球星凯文·加内特走进宝石店,希望租下这些石头,由于它们可以给他在NBA总决赛上带来好运,局势也就越发复杂了起来 。

获奖情况  

  第85届纽约影评人协会奖(2019)
  最好导演 本·萨弗迪 / 约书亚·萨弗迪

  第91届美国国家批评协会奖(2019)
  最好男配角 亚当·桑德勒
  最好原创剧本 约书亚·萨弗迪 / 罗纳德·布隆斯坦 / 本·萨弗迪
  年度佳片

  第25届美国批评家挑选电影奖(2020)
  最好影片(提名)
  最好导演(提名) 约书亚·萨弗迪 / 本·萨弗迪
  最好男配角(提名) 亚当·桑德勒
  最好剪辑(提名)

  第35届美国自力精神奖(2020)
  最好影片(提名)
  最好导演(提名) 本·萨弗迪 / 约书亚·萨弗迪
  最好男配角(提名) 亚当·桑德勒
  最好剧本(提名) 本·萨弗迪 / 罗纳德·布隆斯坦 / 约书亚·萨弗迪
  最好剪辑(提名)

  第29届哥谭自力电影奖(2019)
  最好影片(提名)
  最好男演员(提名) 亚当·桑德勒
  年度冲破演员(提名) 茱莉娅·福克斯

  第24届金卫星奖(2020)
  电影部分 最好笑剧/音乐片(提名)
  电影部分 笑剧/音乐片最好男配角(提名) 亚当·桑德勒

  第54届美国国家影评人协会奖(2020)
  最好男配角(提名) 亚当·桑德勒

  第40届波士顿影评人协会奖(2019)
  最好男配角 亚当·桑德勒
  最好剪辑(提名) 本·萨弗迪 / 罗纳德·布隆斯坦

  第45届洛杉矶影评人协会奖(2019)
  最好剪辑(提名)

  第32届芝加哥影评人协会奖(2019)
  最好男配角(提名) 亚当·桑德勒
  最好剪辑(提名)
  最好原创配乐(提名) 丹尼尔·罗帕汀
  最具潜力演员(提名) 茱莉娅·福克斯

  第4届亚特兰大影评人协会奖(2019)
  十佳影片

  第23届美国在线影评人协会奖(2020)
  最好影片(提名)
  最好男配角(提名) 亚当·桑德勒
  1. Video
  2. ID                                       : 1
  3. Format                                   : AVC
  4. Format/Info                              : Advanced Video Codec
  5. Format profile                           : [email protected]
  6. Format settings                          : CABAC / 12 Ref Frames
  7. Format settings, CABAC                   : Yes
  8. Format settings, Reference frames        : 12 frames
  9. Codec ID                                 : V_MPEG4/ISO/AVC
  10. Duration                                 : 2 h 15 min
  11. Bit rate                                 : 7 734 kb/s
  12. Width                                    : 1 280 pixels
  13. Height                                   : 536 pixels
  14. Display aspect ratio                     : 2.40:1
  15. Frame rate mode                          : Constant
  16. Frame rate                               : 24.000 FPS
  17. Color space                              : YUV
  18. Chroma subsampling                       : 4:2:0
  19. Bit depth                                : 8 bits
  20. Scan type                                : Progressive
  21. Bits/(Pixel*Frame)                       : 0.470
  22. Stream size                              : 7.34 GiB (91%)
  23. Writing library                          : x264 core 157 r2969 d4099dd
  24. Encoding settings                        : cabac=1 / ref=12 / deblock=1:-3:-3 / analyse=0x3:0x133 / me=umh / subme=10 / psy=1 / psy_rd=1.00:0.15 / mixed_ref=1 / me_range=48 / chroma_me=1 / trellis=2 / 8x8dct=1 / cqm=0 / deadzone=21,11 / fast_pskip=0 / chroma_qp_offset=-3 / threads=17 / lookahead_threads=2 / sliced_threads=0 / nr=0 / decimate=0 / interlaced=0 / bluray_compat=0 / constrained_intra=0 / bframes=8 / b_pyramid=2 / b_adapt=2 / b_bias=0 / direct=3 / weightb=1 / open_gop=0 / weightp=2 / keyint=250 / keyint_min=24 / scenecut=40 / intra_refresh=0 / rc=crf / mbtree=0 / crf=19.0 / qcomp=0.60 / qpmin=0 / qpmax=69 / qpstep=4 / ip_ratio=1.30 / pb_ratio=1.20 / aq=3:0.80
  25. Language                                 : English
  26. Default                                  : Yes
  27. Forced                                   : No

  28. Audio
  29. ID                                       : 2
  30. Format                                   : E-AC-3 JOC
  31. Format/Info                              : Enhanced AC-3 with Joint Object Coding
  32. Commercial name                          : Dolby Digital Plus with Dolby Atmos
  33. Codec ID                                 : A_EAC3
  34. Duration                                 : 2 h 15 min
  35. Bit rate mode                            : Constant
  36. Bit rate                                 : 768 kb/s
  37. Channel(s)                               : 6 channels
  38. Channel layout                           : L R C LFE Ls Rs
  39. Sampling rate                            : 48.0 kHz
  40. Frame rate                               : 31.250 FPS (1536 SPF)
  41. Compression mode                         : Lossy
  42. Stream size                              : 746 MiB (9%)
  43. Title                                    : English
  44. Language                                 : English
  45. Service kind                             : Complete Main
  46. Default                                  : Yes
  47. Forced                                   : No
  48. Complexity index                         : 16
  49. Number of dynamic objects                : 15
  50. Bed channel count                        : 1 channel
  51. Bed channel configuration                : LFE

  52. Text #1
  53. ID                                       : 3
  54. Format                                   : UTF-8
  55. Codec ID                                 : S_TEXT/UTF8
  56. Codec ID/Info                            : UTF-8 Plain Text
  57. Duration                                 : 2 h 9 min
  58. Bit rate                                 : 107 b/s
  59. Count of elements                        : 2584
  60. Stream size                              : 102 KiB (0%)
  61. Language                                 : English
  62. Default                                  : No
  63. Forced                                   : No

  64. Text #2
  65. ID                                       : 4
  66. Format                                   : UTF-8
  67. Codec ID                                 : S_TEXT/UTF8
  68. Codec ID/Info                            : UTF-8 Plain Text
  69. Duration                                 : 2 h 13 min
  70. Bit rate                                 : 114 b/s
  71. Count of elements                        : 2730
  72. Stream size                              : 112 KiB (0%)
  73. Title                                    : SDH
  74. Language                                 : English
  75. Default                                  : No
  76. Forced                                   : No

  77. Text #3
  78. ID                                       : 5
  79. Format                                   : UTF-8
  80. Codec ID                                 : S_TEXT/UTF8
  81. Codec ID/Info                            : UTF-8 Plain Text
  82. Duration                                 : 2 h 14 min
  83. Bit rate                                 : 143 b/s
  84. Count of elements                        : 2553
  85. Stream size                              : 141 KiB (0%)
  86. Language                                 : Arabic
  87. Default                                  : No
  88. Forced                                   : No

  89. Text #4
  90. ID                                       : 6
  91. Format                                   : UTF-8
  92. Codec ID                                 : S_TEXT/UTF8
  93. Codec ID/Info                            : UTF-8 Plain Text
  94. Duration                                 : 2 h 14 min
  95. Bit rate                                 : 81 b/s
  96. Count of elements                        : 2512
  97. Stream size                              : 79.7 KiB (0%)
  98. Language                                 : Czech
  99. Default                                  : No
  100. Forced                                   : No

  101. Text #5
  102. ID                                       : 7
  103. Format                                   : UTF-8
  104. Codec ID                                 : S_TEXT/UTF8
  105. Codec ID/Info                            : UTF-8 Plain Text
  106. Duration                                 : 2 h 14 min
  107. Bit rate                                 : 77 b/s
  108. Count of elements                        : 2183
  109. Stream size                              : 76.4 KiB (0%)
  110. Language                                 : Danish
  111. Default                                  : No
  112. Forced                                   : No

  113. Text #6
  114. ID                                       : 8
  115. Format                                   : UTF-8
  116. Codec ID                                 : S_TEXT/UTF8
  117. Codec ID/Info                            : UTF-8 Plain Text
  118. Duration                                 : 2 h 14 min
  119. Bit rate                                 : 81 b/s
  120. Count of elements                        : 2377
  121. Stream size                              : 80.0 KiB (0%)
  122. Language                                 : German
  123. Default                                  : No
  124. Forced                                   : No

  125. Text #7
  126. ID                                       : 9
  127. Format                                   : UTF-8
  128. Codec ID                                 : S_TEXT/UTF8
  129. Codec ID/Info                            : UTF-8 Plain Text
  130. Duration                                 : 2 h 14 min
  131. Bit rate                                 : 134 b/s
  132. Count of elements                        : 2474
  133. Stream size                              : 132 KiB (0%)
  134. Language                                 : Greek
  135. Default                                  : No
  136. Forced                                   : No

  137. Text #8
  138. ID                                       : 10
  139. Format                                   : UTF-8
  140. Codec ID                                 : S_TEXT/UTF8
  141. Codec ID/Info                            : UTF-8 Plain Text
  142. Duration                                 : 2 h 14 min
  143. Bit rate                                 : 77 b/s
  144. Count of elements                        : 2514
  145. Stream size                              : 76.4 KiB (0%)
  146. Language                                 : Spanish
  147. Default                                  : No
  148. Forced                                   : No

  149. Text #9
  150. ID                                       : 11
  151. Format                                   : UTF-8
  152. Codec ID                                 : S_TEXT/UTF8
  153. Codec ID/Info                            : UTF-8 Plain Text
  154. Duration                                 : 2 h 14 min
  155. Bit rate                                 : 73 b/s
  156. Count of elements                        : 2556
  157. Stream size                              : 72.1 KiB (0%)
  158. Title                                    : European
  159. Language                                 : Spanish
  160. Default                                  : No
  161. Forced                                   : No

  162. Text #10
  163. ID                                       : 12
  164. Format                                   : UTF-8
  165. Codec ID                                 : S_TEXT/UTF8
  166. Codec ID/Info                            : UTF-8 Plain Text
  167. Duration                                 : 2 h 14 min
  168. Bit rate                                 : 80 b/s
  169. Count of elements                        : 2337
  170. Stream size                              : 79.1 KiB (0%)
  171. Language                                 : Finnish
  172. Default                                  : No
  173. Forced                                   : No

  174. Text #11
  175. ID                                       : 13
  176. Format                                   : UTF-8
  177. Codec ID                                 : S_TEXT/UTF8
  178. Codec ID/Info                            : UTF-8 Plain Text
  179. Duration                                 : 2 h 14 min
  180. Bit rate                                 : 74 b/s
  181. Count of elements                        : 2424
  182. Stream size                              : 73.5 KiB (0%)
  183. Language                                 : French
  184. Default                                  : No
  185. Forced                                   : No

  186. Text #12
  187. ID                                       : 14
  188. Format                                   : UTF-8
  189. Codec ID                                 : S_TEXT/UTF8
  190. Codec ID/Info                            : UTF-8 Plain Text
  191. Duration                                 : 2 h 14 min
  192. Bit rate                                 : 141 b/s
  193. Count of elements                        : 2314
  194. Stream size                              : 138 KiB (0%)
  195. Language                                 : Hebrew
  196. Default                                  : No
  197. Forced                                   : No

  198. Text #13
  199. ID                                       : 15
  200. Format                                   : UTF-8
  201. Codec ID                                 : S_TEXT/UTF8
  202. Codec ID/Info                            : UTF-8 Plain Text
  203. Duration                                 : 2 h 14 min
  204. Bit rate                                 : 240 b/s
  205. Count of elements                        : 2555
  206. Stream size                              : 236 KiB (0%)
  207. Language                                 : Hindi
  208. Default                                  : No
  209. Forced                                   : No

  210. Text #14
  211. ID                                       : 16
  212. Format                                   : UTF-8
  213. Codec ID                                 : S_TEXT/UTF8
  214. Codec ID/Info                            : UTF-8 Plain Text
  215. Duration                                 : 2 h 14 min
  216. Bit rate                                 : 81 b/s
  217. Count of elements                        : 2326
  218. Stream size                              : 79.8 KiB (0%)
  219. Language                                 : Hungarian
  220. Default                                  : No
  221. Forced                                   : No

  222. Text #15
  223. ID                                       : 17
  224. Format                                   : UTF-8
  225. Codec ID                                 : S_TEXT/UTF8
  226. Codec ID/Info                            : UTF-8 Plain Text
  227. Duration                                 : 2 h 14 min
  228. Bit rate                                 : 70 b/s
  229. Count of elements                        : 2522
  230. Stream size                              : 69.4 KiB (0%)
  231. Language                                 : Indonesian
  232. Default                                  : No
  233. Forced                                   : No

  234. Text #16
  235. ID                                       : 18
  236. Format                                   : UTF-8
  237. Codec ID                                 : S_TEXT/UTF8
  238. Codec ID/Info                            : UTF-8 Plain Text
  239. Duration                                 : 2 h 14 min
  240. Bit rate                                 : 83 b/s
  241. Count of elements                        : 2549
  242. Stream size                              : 82.1 KiB (0%)
  243. Language                                 : Italian
  244. Default                                  : No
  245. Forced                                   : No

  246. Text #17
  247. ID                                       : 19
  248. Format                                   : UTF-8
  249. Codec ID                                 : S_TEXT/UTF8
  250. Codec ID/Info                            : UTF-8 Plain Text
  251. Duration                                 : 2 h 14 min
  252. Bit rate                                 : 68 b/s
  253. Count of elements                        : 2654
  254. Stream size                              : 66.9 KiB (0%)
  255. Language                                 : Japanese
  256. Default                                  : No
  257. Forced                                   : No

  258. Text #18
  259. ID                                       : 20
  260. Format                                   : UTF-8
  261. Codec ID                                 : S_TEXT/UTF8
  262. Codec ID/Info                            : UTF-8 Plain Text
  263. Duration                                 : 2 h 14 min
  264. Bit rate                                 : 104 b/s
  265. Count of elements                        : 2565
  266. Stream size                              : 103 KiB (0%)
  267. Language                                 : Korean
  268. Default                                  : No
  269. Forced                                   : No

  270. Text #19
  271. ID                                       : 21
  272. Format                                   : UTF-8
  273. Codec ID                                 : S_TEXT/UTF8
  274. Codec ID/Info                            : UTF-8 Plain Text
  275. Duration                                 : 2 h 14 min
  276. Bit rate                                 : 75 b/s
  277. Count of elements                        : 1928
  278. Stream size                              : 74.4 KiB (0%)
  279. Language                                 : Norwegian Bokmal
  280. Default                                  : No
  281. Forced                                   : No

  282. Text #20
  283. ID                                       : 22
  284. Format                                   : UTF-8
  285. Codec ID                                 : S_TEXT/UTF8
  286. Codec ID/Info                            : UTF-8 Plain Text
  287. Duration                                 : 2 h 14 min
  288. Bit rate                                 : 77 b/s
  289. Count of elements                        : 2235
  290. Stream size                              : 76.2 KiB (0%)
  291. Language                                 : Dutch
  292. Default                                  : No
  293. Forced                                   : No

  294. Text #21
  295. ID                                       : 23
  296. Format                                   : UTF-8
  297. Codec ID                                 : S_TEXT/UTF8
  298. Codec ID/Info                            : UTF-8 Plain Text
  299. Duration                                 : 2 h 14 min
  300. Bit rate                                 : 72 b/s
  301. Count of elements                        : 2538
  302. Stream size                              : 71.1 KiB (0%)
  303. Language                                 : Polish
  304. Default                                  : No
  305. Forced                                   : No

  306. Text #22
  307. ID                                       : 24
  308. Format                                   : UTF-8
  309. Codec ID                                 : S_TEXT/UTF8
  310. Codec ID/Info                            : UTF-8 Plain Text
  311. Duration                                 : 2 h 14 min
  312. Bit rate                                 : 83 b/s
  313. Count of elements                        : 2528
  314. Stream size                              : 82.4 KiB (0%)
  315. Language                                 : Portuguese
  316. Default                                  : No
  317. Forced                                   : No

  318. Text #23
  319. ID                                       : 25
  320. Format                                   : UTF-8
  321. Codec ID                                 : S_TEXT/UTF8
  322. Codec ID/Info                            : UTF-8 Plain Text
  323. Duration                                 : 2 h 14 min
  324. Bit rate                                 : 82 b/s
  325. Count of elements                        : 2645
  326. Stream size                              : 81.5 KiB (0%)
  327. Title                                    : Brazilian
  328. Language                                 : Portuguese
  329. Default                                  : No
  330. Forced                                   : No

  331. Text #24
  332. ID                                       : 26
  333. Format                                   : UTF-8
  334. Codec ID                                 : S_TEXT/UTF8
  335. Codec ID/Info                            : UTF-8 Plain Text
  336. Duration                                 : 2 h 14 min
  337. Bit rate                                 : 83 b/s
  338. Count of elements                        : 2520
  339. Stream size                              : 82.2 KiB (0%)
  340. Language                                 : Romanian
  341. Default                                  : No
  342. Forced                                   : No

  343. Text #25
  344. ID                                       : 27
  345. Format                                   : UTF-8
  346. Codec ID                                 : S_TEXT/UTF8
  347. Codec ID/Info                            : UTF-8 Plain Text
  348. Duration                                 : 2 h 14 min
  349. Bit rate                                 : 133 b/s
  350. Count of elements                        : 2519
  351. Stream size                              : 131 KiB (0%)
  352. Language                                 : Russian
  353. Default                                  : No
  354. Forced                                   : No

  355. Text #26
  356. ID                                       : 28
  357. Format                                   : UTF-8
  358. Codec ID                                 : S_TEXT/UTF8
  359. Codec ID/Info                            : UTF-8 Plain Text
  360. Duration                                 : 2 h 14 min
  361. Bit rate                                 : 74 b/s
  362. Count of elements                        : 2181
  363. Stream size                              : 72.8 KiB (0%)
  364. Language                                 : Swedish
  365. Default                                  : No
  366. Forced                                   : No

  367. Text #27
  368. ID                                       : 29
  369. Format                                   : UTF-8
  370. Codec ID                                 : S_TEXT/UTF8
  371. Codec ID/Info                            : UTF-8 Plain Text
  372. Duration                                 : 2 h 14 min
  373. Bit rate                                 : 257 b/s
  374. Count of elements                        : 2545
  375. Stream size                              : 253 KiB (0%)
  376. Language                                 : Thai
  377. Default                                  : No
  378. Forced                                   : No

  379. Text #28
  380. ID                                       : 30
  381. Format                                   : UTF-8
  382. Codec ID                                 : S_TEXT/UTF8
  383. Codec ID/Info                            : UTF-8 Plain Text
  384. Duration                                 : 2 h 14 min
  385. Bit rate                                 : 84 b/s
  386. Count of elements                        : 2415
  387. Stream size                              : 82.6 KiB (0%)
  388. Language                                 : Turkish
  389. Default                                  : No
  390. Forced                                   : No

  391. Text #29
  392. ID                                       : 31
  393. Format                                   : UTF-8
  394. Codec ID                                 : S_TEXT/UTF8
  395. Codec ID/Info                            : UTF-8 Plain Text
  396. Duration                                 : 2 h 8 min
  397. Bit rate                                 : 118 b/s
  398. Count of elements                        : 2388
  399. Stream size                              : 112 KiB (0%)
  400. Language                                 : Vietnamese
  401. Default                                  : No
  402. Forced                                   : No

  403. Text #30
  404. ID                                       : 32
  405. Format                                   : UTF-8
  406. Codec ID                                 : S_TEXT/UTF8
  407. Codec ID/Info                            : UTF-8 Plain Text
  408. Duration                                 : 2 h 14 min
  409. Bit rate                                 : 95 b/s
  410. Count of elements                        : 2554
  411. Stream size                              : 93.9 KiB (0%)
  412. Title                                    : Simplified
  413. Language                                 : Chinese
  414. Default                                  : No
  415. Forced                                   : No

  416. Text #31
  417. ID                                       : 33
  418. Format                                   : UTF-8
  419. Codec ID                                 : S_TEXT/UTF8
  420. Codec ID/Info                            : UTF-8 Plain Text
  421. Duration                                 : 2 h 14 min
  422. Bit rate                                 : 89 b/s
  423. Count of elements                        : 2560
  424. Stream size                              : 88.1 KiB (0%)
  425. Title                                    : Traditional
  426. Language                                 : Chinese
  427. Default                                  : No
  428. Forced                                   : No
复制代码

原钻/未切割宝石 Uncut.Gems.2019.720p.NF.WEB.DDP5.1.Atmos.x264-NTb 8.07GB-2.png 原钻/未切割宝石 Uncut.Gems.2019.720p.NF.WEB.DDP5.1.Atmos.x264-NTb 8.07GB-3.png 原钻/未切割宝石 Uncut.Gems.2019.720p.NF.WEB.DDP5.1.Atmos.x264-NTb 8.07GB-4.png






回复

使用道具 举报

懒得打字嘛,点击右侧快捷回复 【右侧内容,后台自定义】
您需要登录后才可以回帖 登录 | 立即加入

本版积分规则

Archiver|小黑屋| 蓝光电影网 |网站地图

Copyright © 2021 Comsenz Inc. Powered by 蓝光电影网

蓝光电影网

本站内容由用户自主分享和转载自互联网,转载目的在于传递更多信息,并不代表本网赞同其观点和对其真实性负责。

如有侵权、违反国家法律政策行为,请联系我们,我们会第一时间及时清除和处理!

举报反馈邮箱:[email protected]

快速回复 返回顶部 返回列表