找回密码

蓝光电影网

查看: 1931|回复: 6

[剧情] 小Q Little.Q.2019.CHINESE.1080p.BluRay.x264.DD5.1-PTer 10.41GB

[复制链接]
蓝光币
886
发表于 2020-2-3 14:57:50 | 显示全部楼层 |阅读模式
小Q Little.Q.2019.CHINESE.1080p.BluRay.x264.DD5.1-PTer 10.41GB-1.png

译  名 Little Q
片  名 小Q
年  代 2019
产  地 中国大陆 / 中国香港
类  别 剧情
语  言 汉语普通话 / 粤语
上映日期 2019-08-15(中国香港) / 2019-09-20(中国大陆)
IMDb评分  6.3/10 from 77 users
IMDb链接  https://www.imdb.com/title/tt10584272
豆瓣评分 6.7/10 from 25717 users
豆瓣链接 https://movie.douban.com/subject/30376977/
片  长 107分钟
导  演 罗永昌 Wing-cheong Law
编  剧 陈淑贤 Susan Chan
主  演 任达华 Simon Yam
       梁咏琪 Gigi Leung
       罗仲谦 Chung Him Law
       杨采妮 Charlie Yeung
       袁姗姗 Shanshan Yuan
       袁澧林 Angela Yuen
       刘楚恬 Chutian Liu
       林文龙 Frankie Lam
       郭晋安 Roger Kwok
       胡明 Ming Hu
       余佳哝
       陈雅丽 Allie Chan
       贾晓晨 J.J. Jia
       鲁牛 Niu Lu
       刘永 Anthony Liu


标  签 治愈 | 温情 | 感动 | 宠物 | 动物 | 导盲犬 | 香港 | 剧情

简  介  

  本片报告了聪明心爱的小Q在练习师悉心顾问和练习进程中长大为一只及格的导盲犬,并碰到了仆人李宝庭(任达华饰)——中年失明、孤僻又坏脾性的天赋糕点师。他们配合生活的日子里,小Q逐步融化并走入了宝庭的心里,温情的陪伴令处于低谷期的宝庭有了新 生活,一人一犬,深深的拘束,他们谁也没法再落空相互。
  1. Video
  2. ID                                       : 1
  3. Format                                   : AVC
  4. Format/Info                              : Advanced Video Codec
  5. Format profile                           : [email protected]
  6. Format settings                          : CABAC / 5 Ref Frames
  7. Format settings, CABAC                   : Yes
  8. Format settings, Reference frames        : 5 frames
  9. Codec ID                                 : V_MPEG4/ISO/AVC
  10. Duration                                 : 1 h 46 min
  11. Bit rate                                 : 13.3 Mb/s
  12. Width                                    : 1 920 pixels
  13. Height                                   : 804 pixels
  14. Display aspect ratio                     : 2.40:1
  15. Frame rate mode                          : Constant
  16. Frame rate                               : 24.000 FPS
  17. Color space                              : YUV
  18. Chroma subsampling                       : 4:2:0
  19. Bit depth                                : 8 bits
  20. Scan type                                : Progressive
  21. Bits/(Pixel*Frame)                       : 0.359
  22. Stream size                              : 9.93 GiB (95%)
  23. Writing library                          : x264 core 158 r2984 3759fcb
  24. Encoding settings                        : cabac=1 / ref=5 / deblock=1:-3:-3 / analyse=0x3:0x133 / me=umh / subme=11 / psy=1 / psy_rd=1.02:0.00 / mixed_ref=1 / me_range=32 / chroma_me=1 / trellis=2 / 8x8dct=1 / cqm=0 / deadzone=21,11 / fast_pskip=0 / chroma_qp_offset=-2 / threads=25 / lookahead_threads=4 / sliced_threads=0 / nr=0 / decimate=0 / interlaced=0 / bluray_compat=0 / constrained_intra=0 / bframes=7 / b_pyramid=2 / b_adapt=2 / b_bias=0 / direct=3 / weightb=1 / open_gop=0 / weightp=2 / keyint=250 / keyint_min=24 / scenecut=40 / intra_refresh=0 / rc_lookahead=250 / rc=crf / mbtree=0 / crf=16.5 / qcomp=0.60 / qpmin=0 / qpmax=69 / qpstep=4 / vbv_maxrate=62500 / vbv_bufsize=78125 / crf_max=0.0 / nal_hrd=none / filler=0 / ip_ratio=1.30 / pb_ratio=1.20 / aq=3:0.80
  25. Language                                 : English
  26. Default                                  : Yes
  27. Forced                                   : No
  28. Color range                              : Limited
  29. Color primaries                          : BT.709
  30. Matrix coefficients                      : BT.709

  31. Audio
  32. ID                                       : 2
  33. Format                                   : AC-3
  34. Format/Info                              : Audio Coding 3
  35. Commercial name                          : Dolby Digital
  36. Codec ID                                 : A_AC3
  37. Duration                                 : 1 h 46 min
  38. Bit rate mode                            : Constant
  39. Bit rate                                 : 640 kb/s
  40. Channel(s)                               : 6 channels
  41. Channel layout                           : L R C LFE Ls Rs
  42. Sampling rate                            : 48.0 kHz
  43. Frame rate                               : 31.250 FPS (1536 SPF)
  44. Bit depth                                : 16 bits
  45. Compression mode                         : Lossy
  46. Stream size                              : 489 MiB (5%)
  47. Title                                    : Mandarin
  48. Language                                 : Chinese
  49. Service kind                             : Complete Main
  50. Default                                  : Yes
  51. Forced                                   : No

  52. Text
  53. ID                                       : 3
  54. Format                                   : UTF-8
  55. Codec ID                                 : S_TEXT/UTF8
  56. Codec ID/Info                            : UTF-8 Plain Text
  57. Duration                                 : 1 h 45 min
  58. Bit rate                                 : 40 b/s
  59. Count of elements                        : 1137
  60. Stream size                              : 31.1 KiB (0%)
  61. Language                                 : English
  62. Default                                  : Yes
  63. Forced                                   : No

  64. Menu
  65. 00:00:00.000                             : en:Chapter 1
  66. 00:04:02.250                             : en:Chapter 2
  67. 00:08:18.250                             : en:Chapter 3
  68. 00:13:33.208                             : en:Chapter 4
  69. 00:19:45.500                             : en:Chapter 5
  70. 00:26:41.375                             : en:Chapter 6
  71. 00:31:25.625                             : en:Chapter 7
  72. 00:35:08.166                             : en:Chapter 8
  73. 00:40:35.041                             : en:Chapter 9
  74. 00:44:12.791                             : en:Chapter 10
  75. 00:48:40.916                             : en:Chapter 11
  76. 00:53:04.958                             : en:Chapter 12
  77. 00:59:43.708                             : en:Chapter 13
  78. 01:06:40.125                             : en:Chapter 14
  79. 01:10:23.500                             : en:Chapter 15
  80. 01:16:41.416                             : en:Chapter 16
  81. 01:23:35.875                             : en:Chapter 17
  82. 01:29:02.500                             : en:Chapter 18
  83. 01:32:38.500                             : en:Chapter 19
  84. 01:38:04.125                             : en:Chapter 20
复制代码

小Q Little.Q.2019.CHINESE.1080p.BluRay.x264.DD5.1-PTer 10.41GB-2.png 小Q Little.Q.2019.CHINESE.1080p.BluRay.x264.DD5.1-PTer 10.41GB-3.png 小Q Little.Q.2019.CHINESE.1080p.BluRay.x264.DD5.1-PTer 10.41GB-4.png






回复

使用道具 举报

蓝光币
818
发表于 2020-2-3 16:05:24 | 显示全部楼层
楼主发贴辛苦了,谢谢楼主分享!我觉得蓝光电影网是注册对了!
回复 支持 反对

使用道具 举报

蓝光币
863
发表于 2020-2-3 16:20:20 | 显示全部楼层
谢谢楼主无私分享。
回复 支持 反对

使用道具 举报

蓝光币
213
发表于 2020-2-3 18:44:38 | 显示全部楼层
谢谢楼主无私分享
回复 支持 反对

使用道具 举报

蓝光币
150
发表于 2020-2-3 22:10:35 | 显示全部楼层

既然你诚信诚意的推荐了,那我就勉为其难的看看吧!蓝光电影网不走平凡路。
回复 支持 反对

使用道具 举报

蓝光币
40
发表于 2020-2-4 20:04:39 | 显示全部楼层


这东西我收了!谢谢楼主!蓝光电影网真好!
回复 支持 反对

使用道具 举报

蓝光币
570
发表于 2020-2-16 11:16:08 | 显示全部楼层

我看不错噢 谢谢楼主!蓝光电影网越来越好!
回复 支持 反对

使用道具 举报

懒得打字嘛,点击右侧快捷回复 【右侧内容,后台自定义】
您需要登录后才可以回帖 登录 | 立即加入

本版积分规则

Archiver|小黑屋| 蓝光电影网 |网站地图

Copyright © 2021 Comsenz Inc. Powered by 蓝光电影网

蓝光电影网

本站内容由用户自主分享和转载自互联网,转载目的在于传递更多信息,并不代表本网赞同其观点和对其真实性负责。

如有侵权、违反国家法律政策行为,请联系我们,我们会第一时间及时清除和处理!

举报反馈邮箱:[email protected]

快速回复 返回顶部 返回列表