找回密码

蓝光电影网

查看: 472|回复: 0

[科幻] 野生世界 The.Outer.Wild.2018.1080p.WEB-DL.DD5.1.H264-FGT 2.88GB

[复制链接]
蓝光币
1022
发表于 2020-2-3 15:09:31 | 显示全部楼层 |阅读模式
野生天下 The.Outer.Wild.2018.1080p.WEB-DL.DD5.1.H264-FGT 2.88GB-1.png

译  名 野生天下
片  名 The Outer Wild
年  代 2018
产  地 美国
类  别 科幻 / 惊悚 / 可骇 / 奇异 / 冒险
语  言 英语
上映日期 2018-09-28(美国)
IMDb评分  3.4/10 from 323 users
IMDb链接  https://www.imdb.com/title/tt6958520
豆瓣评分 0/10 from 0 users
豆瓣链接 https://movie.douban.com/subject/30337518/
片  长 85分钟
导  演 Philip Chidel
编  剧 Philip Chidel
主  演 劳伦 麦克奈特 Lauren McKnight
       克里斯蒂安·奥列佛 Christian Oliver
       杰弗里·文森特·帕里塞 Jeffrey Vincent Parise
       Tory Taranova
       吉米·让-刘易斯 Jimmy Jean-Louis
       扎齐·罗伊瑞格 Zach Roerig
       Dean Stapleton
       Kari Windingstad
       Alaina Garland


标  签 科幻 | 美国 | 可骇 | 2018 | 人类文化 | 电影 | 奇异 | 可骇电影

简  介  

  野生天下里,女人上赤星天堂,汉子则变成原始野兽。为领会救人类,一个失控的女孩和一个地痞赏金猎人,浪迹野生天下,希冀找到神话庇护所,或拯救人类或扑灭人类……
  1. Video
  2. ID                                       : 1
  3. Format                                   : AVC
  4. Format/Info                              : Advanced Video Codec
  5. Format profile                           : [email protected]
  6. Format settings                          : CABAC / 5 Ref Frames
  7. Format settings, CABAC                   : Yes
  8. Format settings, Reference frames        : 5 frames
  9. Codec ID                                 : V_MPEG4/ISO/AVC
  10. Duration                                 : 1 h 24 min
  11. Bit rate                                 : 4 495 kb/s
  12. Width                                    : 1 908 pixels
  13. Height                                   : 792 pixels
  14. Display aspect ratio                     : 2.40:1
  15. Frame rate mode                          : Constant
  16. Frame rate                               : 23.976 (23976/1000) FPS
  17. Color space                              : YUV
  18. Chroma subsampling                       : 4:2:0
  19. Bit depth                                : 8 bits
  20. Scan type                                : Progressive
  21. Bits/(Pixel*Frame)                       : 0.124
  22. Stream size                              : 2.65 GiB (92%)
  23. Title                                    : The.Outer.Wild.2018.1080p.WEB-DL.DD5.1.H264-FGT
  24. Language                                 : English
  25. Default                                  : Yes
  26. Forced                                   : No
  27. Color range                              : Limited
  28. Color primaries                          : BT.709
  29. Transfer characteristics                 : BT.709
  30. Matrix coefficients                      : BT.709

  31. Audio
  32. ID                                       : 2
  33. Format                                   : AC-3
  34. Format/Info                              : Audio Coding 3
  35. Commercial name                          : Dolby Digital
  36. Codec ID                                 : A_AC3
  37. Duration                                 : 1 h 24 min
  38. Bit rate mode                            : Constant
  39. Bit rate                                 : 384 kb/s
  40. Channel(s)                               : 6 channels
  41. Channel layout                           : L R C LFE Ls Rs
  42. Sampling rate                            : 48.0 kHz
  43. Frame rate                               : 31.250 FPS (1536 SPF)
  44. Compression mode                         : Lossy
  45. Stream size                              : 232 MiB (8%)
  46. Title                                    : The.Outer.Wild.2018.1080p.WEB-DL.DD5.1.H264-FGT
  47. Language                                 : English
  48. Service kind                             : Complete Main
  49. Default                                  : Yes
  50. Forced                                   : No

  51. Menu
  52. 00:00:00.000                             : en:1
  53. 00:04:30.000                             : en:2
  54. 00:13:05.000                             : en:3
  55. 00:22:27.000                             : en:4
  56. 00:30:56.000                             : en:5
  57. 00:40:23.000                             : en:6
  58. 00:51:47.000                             : en:7
  59. 01:02:44.000                             : en:8
  60. 01:13:30.000                             : en:9
  61. 01:22:25.000                             : en:10
复制代码

野生天下 The.Outer.Wild.2018.1080p.WEB-DL.DD5.1.H264-FGT 2.88GB-1.png 野生天下 The.Outer.Wild.2018.1080p.WEB-DL.DD5.1.H264-FGT 2.88GB-3.png 野生天下 The.Outer.Wild.2018.1080p.WEB-DL.DD5.1.H264-FGT 2.88GB-2.png






回复

使用道具 举报

懒得打字嘛,点击右侧快捷回复 【右侧内容,后台自定义】
您需要登录后才可以回帖 登录 | 立即加入

本版积分规则

Archiver|小黑屋| 蓝光电影网 |网站地图

Copyright © 2021 Comsenz Inc. Powered by 蓝光电影网

蓝光电影网

本站内容由用户自主分享和转载自互联网,转载目的在于传递更多信息,并不代表本网赞同其观点和对其真实性负责。

如有侵权、违反国家法律政策行为,请联系我们,我们会第一时间及时清除和处理!

举报反馈邮箱:[email protected]

快速回复 返回顶部 返回列表