找回密码

蓝光电影网

查看: 203|回复: 0

[剧情] 吸血网站/最后的宗派 The.Last.Sect.2006.1080p.WEB-DL.DD5.1.H264-FGT 3.11GB

[复制链接]
蓝光币
1022
发表于 2020-2-3 15:12:04 | 显示全部楼层 |阅读模式
吸血网站/最初的宗派 The.Last.Sect.2006.1080p.WEB-DL.DD5.1.H264-FGT 3.11GB-1.png

译  名 吸血网站 / 最初的宗派
片  名 The Last Sect
年  代 2006
产  地 加拿大
类  别 惊悚 / 可骇
语  言 英语 / 法语
上映日期 2007-01-17
IMDb评分  3.6/10 from 682 users
IMDb链接  https://www.imdb.com/title/tt0494746
豆瓣评分 4.7/10 from 99 users
豆瓣链接 https://movie.douban.com/subject/1887973/
片  长 90 分钟
导  演 Jonathan Dueck
编  剧 David Robbeson
主  演 大卫·卡拉丁 David Carradine
       Deborah Odell


标  签 吸血鬼 | Les | 加拿大 | 美国 | 女性 | 魔幻 | 加拿大电影 | les

简  介  

  The journalist Sydney St. James is writing an article for the magazine where she works about the on-line dating agency Artemis that is specialized in women. She schedules an interview with the owner of Artemis, Anna, and she visits the mysterious woman with her photographer Sam, who is fascinated by a site called Vampire Web. Sidney feels a great attraction for Anna, who is actually an ancient vampire called Anastasia.
  1. Video
  2. ID                                       : 1
  3. Format                                   : AVC
  4. Format/Info                              : Advanced Video Codec
  5. Format profile                           : [email protected]
  6. Format settings                          : CABAC / 4 Ref Frames
  7. Format settings, CABAC                   : Yes
  8. Format settings, Reference frames        : 4 frames
  9. Codec ID                                 : V_MPEG4/ISO/AVC
  10. Duration                                 : 1 h 27 min
  11. Bit rate                                 : 4 710 kb/s
  12. Width                                    : 1 920 pixels
  13. Height                                   : 1 080 pixels
  14. Display aspect ratio                     : 16:9
  15. Frame rate mode                          : Constant
  16. Frame rate                               : 23.976 (24000/1001) FPS
  17. Color space                              : YUV
  18. Chroma subsampling                       : 4:2:0
  19. Bit depth                                : 8 bits
  20. Scan type                                : Progressive
  21. Bits/(Pixel*Frame)                       : 0.095
  22. Stream size                              : 2.88 GiB (92%)
  23. Title                                    : The.Last.Sect.2006.1080p.WEB-DL.DD5.1.H.264-FGT
  24. Default                                  : Yes
  25. Forced                                   : No
  26. Color range                              : Limited
  27. Color primaries                          : BT.709
  28. Transfer characteristics                 : BT.709
  29. Matrix coefficients                      : BT.709

  30. Audio
  31. ID                                       : 2
  32. Format                                   : AC-3
  33. Format/Info                              : Audio Coding 3
  34. Commercial name                          : Dolby Digital
  35. Codec ID                                 : A_AC3
  36. Duration                                 : 1 h 27 min
  37. Bit rate mode                            : Constant
  38. Bit rate                                 : 384 kb/s
  39. Channel(s)                               : 6 channels
  40. Channel layout                           : L R C LFE Ls Rs
  41. Sampling rate                            : 44.1 kHz
  42. Frame rate                               : 28.711 FPS (1536 SPF)
  43. Compression mode                         : Lossy
  44. Stream size                              : 240 MiB (8%)
  45. Title                                    : The.Last.Sect.2006.1080p.WEB-DL.DD5.1.H.264-FGT
  46. Language                                 : English
  47. Service kind                             : Complete Main
  48. Default                                  : Yes
  49. Forced                                   : No

  50. Text
  51. ID                                       : 3
  52. Format                                   : UTF-8
  53. Codec ID                                 : S_TEXT/UTF8
  54. Codec ID/Info                            : UTF-8 Plain Text
  55. Duration                                 : 1 h 24 min
  56. Bit rate                                 : 35 b/s
  57. Count of elements                        : 814
  58. Stream size                              : 22.1 KiB (0%)
  59. Language                                 : English
  60. Default                                  : Yes
  61. Forced                                   : No

  62. Menu
  63. 00:00:00.000                             : en:Chapter 1
  64. 00:05:56.000                             : en:Chapter 2
  65. 00:10:13.000                             : en:Chapter 3
  66. 00:18:43.000                             : en:Chapter 4
  67. 00:39:46.000                             : en:Chapter 5
  68. 00:50:48.000                             : en:Chapter 6
  69. 01:15:27.000                             : en:Chapter 7
  70. 01:26:59.000                             : en:Chapter 8
复制代码

吸血网站/最初的宗派 The.Last.Sect.2006.1080p.WEB-DL.DD5.1.H264-FGT 3.11GB-2.png 吸血网站/最初的宗派 The.Last.Sect.2006.1080p.WEB-DL.DD5.1.H264-FGT 3.11GB-3.png 吸血网站/最初的宗派 The.Last.Sect.2006.1080p.WEB-DL.DD5.1.H264-FGT 3.11GB-4.png






回复

使用道具 举报

懒得打字嘛,点击右侧快捷回复 【右侧内容,后台自定义】
您需要登录后才可以回帖 登录 | 立即加入

本版积分规则

Archiver|小黑屋| 蓝光电影网 |网站地图

Copyright © 2021 Comsenz Inc. Powered by 蓝光电影网

蓝光电影网

本站内容由用户自主分享和转载自互联网,转载目的在于传递更多信息,并不代表本网赞同其观点和对其真实性负责。

如有侵权、违反国家法律政策行为,请联系我们,我们会第一时间及时清除和处理!

举报反馈邮箱:[email protected]

快速回复 返回顶部 返回列表