找回密码

蓝光电影网

查看: 306|回复: 0

[动作] 最后的抢劫 The.Last.Heist.2016.1080p.WEB-DL.DD5.1.H264-FGT 3.25GB

[复制链接]
蓝光币
1022
发表于 2020-2-3 15:13:31 | 显示全部楼层 |阅读模式
最初的抢劫 The.Last.Heist.2016.1080p.WEB-DL.DD5.1.H264-FGT 3.25GB-1.png

译  名 最初的抢劫
片  名 The Last Heist
年  代 2016
产  地 美国
类  别 行动
语  言 英语
上映日期 2016-06-17(美国)
IMDb评分  3.5/10 from 2441 users
IMDb链接  https://www.imdb.com/title/tt4743562
豆瓣评分 4.2/10 from 87 users
豆瓣链接 https://movie.douban.com/subject/26781458/
导  演 迈克·门德兹 Mike Mendez
编  剧 Guy Stevenson
主  演 亨利·罗林斯 Henry Rollins
       托伦斯·库姆斯 Torrance Coombs
       维多利亚·普拉特 Victoria Pratt
       Mykel Shannon Jenkins
       Nick Principe
       马克·凯利 Mark Kelly
       Ken Lyle
       Kristina Klebe
       Zo Zosak
       John O'Brien
       Ace Marrero
       John J. York
       Guy Stevenson
       费·德维特 Fay DeWitt
       Courtney Compton


标  签 美国 | 犯罪 | 抢劫 | 惊悚 | 2016 | 美国电影 | 类文艺片手法 | 抢银行

简  介  

  A bank heist descends into violent chaos when one of the hostages turns out to be a serial killer. Trapping the well-organized team of bank robbers in the building, the killer is now picking them off one by one.
  1. Video
  2. ID                                       : 1
  3. Format                                   : AVC
  4. Format/Info                              : Advanced Video Codec
  5. Format profile                           : [email protected]
  6. Format settings                          : CABAC / 4 Ref Frames
  7. Format settings, CABAC                   : Yes
  8. Format settings, Reference frames        : 4 frames
  9. Codec ID                                 : V_MPEG4/ISO/AVC
  10. Duration                                 : 1 h 24 min
  11. Bit rate                                 : 5 031 kb/s
  12. Width                                    : 1 916 pixels
  13. Height                                   : 1 032 pixels
  14. Display aspect ratio                     : 1.85:1
  15. Frame rate mode                          : Constant
  16. Frame rate                               : 23.976 FPS
  17. Color space                              : YUV
  18. Chroma subsampling                       : 4:2:0
  19. Bit depth                                : 8 bits
  20. Scan type                                : Progressive
  21. Bits/(Pixel*Frame)                       : 0.106
  22. Stream size                              : 2.96 GiB (91%)
  23. Title                                    : The.Last.Heist.2016.1080p.WEB-DL.DD5.1.H264-FGT
  24. Language                                 : English
  25. Default                                  : Yes
  26. Forced                                   : No
  27. Color range                              : Limited
  28. Color primaries                          : BT.709
  29. Transfer characteristics                 : BT.709
  30. Matrix coefficients                      : BT.709

  31. Audio
  32. ID                                       : 2
  33. Format                                   : AC-3
  34. Format/Info                              : Audio Coding 3
  35. Commercial name                          : Dolby Digital
  36. Codec ID                                 : A_AC3
  37. Duration                                 : 1 h 24 min
  38. Bit rate mode                            : Constant
  39. Bit rate                                 : 384 kb/s
  40. Channel(s)                               : 6 channels
  41. Channel layout                           : L R C LFE Ls Rs
  42. Sampling rate                            : 48.0 kHz
  43. Frame rate                               : 31.250 FPS (1536 SPF)
  44. Compression mode                         : Lossy
  45. Stream size                              : 232 MiB (7%)
  46. Title                                    : The.Last.Heist.2016.1080p.WEB-DL.DD5.1.H264-FGT
  47. Language                                 : English
  48. Service kind                             : Complete Main
  49. Default                                  : Yes
  50. Forced                                   : No

  51. Text
  52. ID                                       : 3
  53. Format                                   : UTF-8
  54. Codec ID                                 : S_TEXT/UTF8
  55. Codec ID/Info                            : UTF-8 Plain Text
  56. Language                                 : English
  57. Default                                  : Yes
  58. Forced                                   : No

  59. Menu
  60. 00:00:00.000                             : en:Civilian
  61. 00:03:01.514                             : en:Making a Deposit
  62. 00:08:02.231                             : en:Begin Heist
  63. 00:12:30.540                             : en:Complications
  64. 00:16:20.895                             : en:a€?No Witnessesa€
  65. 00:22:41.525                             : en:911
  66. 00:27:05.413                             : en:Police Visit
  67. 00:31:32.179                             : en:Shootout
  68. 00:37:58.857                             : en:The Vault
  69. 00:42:55.486                             : en:Bathroom Problems
  70. 00:46:41.962                             : en:The Calvary Arrives
  71. 00:53:49.431                             : en:Crisis
  72. 01:00:08.059                             : en:Freed
  73. 01:07:03.349                             : en:Guns Blazing
  74. 01:14:13.404                             : en:15
  75. 01:22:00.412                             : en:Credits
复制代码

最初的抢劫 The.Last.Heist.2016.1080p.WEB-DL.DD5.1.H264-FGT 3.25GB-2.png 最初的抢劫 The.Last.Heist.2016.1080p.WEB-DL.DD5.1.H264-FGT 3.25GB-3.png 最初的抢劫 The.Last.Heist.2016.1080p.WEB-DL.DD5.1.H264-FGT 3.25GB-4.png 最初的抢劫 The.Last.Heist.2016.1080p.WEB-DL.DD5.1.H264-FGT 3.25GB-5.png 最初的抢劫 The.Last.Heist.2016.1080p.WEB-DL.DD5.1.H264-FGT 3.25GB-6.png 最初的抢劫 The.Last.Heist.2016.1080p.WEB-DL.DD5.1.H264-FGT 3.25GB-7.png






回复

使用道具 举报

懒得打字嘛,点击右侧快捷回复 【右侧内容,后台自定义】
您需要登录后才可以回帖 登录 | 立即加入

本版积分规则

Archiver|小黑屋| 蓝光电影网 |网站地图

Copyright © 2021 Comsenz Inc. Powered by 蓝光电影网

蓝光电影网

本站内容由用户自主分享和转载自互联网,转载目的在于传递更多信息,并不代表本网赞同其观点和对其真实性负责。

如有侵权、违反国家法律政策行为,请联系我们,我们会第一时间及时清除和处理!

举报反馈邮箱:[email protected]

快速回复 返回顶部 返回列表