找回密码

蓝光电影网

查看: 195|回复: 0

[恐怖] 杰克回家了 Jack.Goes.Home.2016.1080p.WEB-DL.DD5.1.H264-FGT 3.61GB

[复制链接]
蓝光币
1020
发表于 2020-2-3 15:24:47 | 显示全部楼层 |阅读模式
杰克回家了 Jack.Goes.Home.2016.1080p.WEB-DL.DD5.1.H264-FGT 3.61GB-1.png

译  名 杰克回家了
片  名 Jack Goes Home
年  代 2016
产  地 美国
类  别 可骇
语  言 英语
上映日期 2016-10-14
IMDb评分  5.0/10 from 1908 users
IMDb链接  https://www.imdb.com/title/tt4797436
豆瓣评分 4.5/10 from 84 users
豆瓣链接 https://movie.douban.com/subject/26630253/
片  长 100分钟
导  演 托马斯·戴克 Thomas Dekker
编  剧 托马斯·戴克 Thomas Dekker
主  演 布丽特·罗伯森 Britt Robertson
       娜塔莎·雷昂 Natasha Lyonne
       妮基·瑞德 Nikki Reed
       黛维·切斯 Daveigh Chase
       林·沙烨 Lin Shaye
       罗瑞·卡尔金 Rory Culkin
       Louis Hunter
       迈克尔·希罗 Michael Sirow


标  签 美国 | 惊悚 | 可骇 | 2016 | 心理 | 美国电影 | 布丽特·罗伯森 | 娜塔莎·雷

简  介  

  在父亲于一场车祸中丧生后,杰克回到故乡卡罗拉多照顾他在车祸中受伤的母亲。在那边,他渐渐发现有关家属被埋藏好久的奥秘,关于他的家人、朋友甚至他自己实在的身份。
  1. Video
  2. ID                                       : 1
  3. Format                                   : AVC
  4. Format/Info                              : Advanced Video Codec
  5. Format profile                           : [email protected]
  6. Format settings                          : CABAC / 5 Ref Frames
  7. Format settings, CABAC                   : Yes
  8. Format settings, Reference frames        : 5 frames
  9. Codec ID                                 : V_MPEG4/ISO/AVC
  10. Duration                                 : 1 h 44 min
  11. Bit rate                                 : 4 467 kb/s
  12. Width                                    : 1 918 pixels
  13. Height                                   : 798 pixels
  14. Display aspect ratio                     : 2.40:1
  15. Frame rate mode                          : Constant
  16. Frame rate                               : 23.976 FPS
  17. Color space                              : YUV
  18. Chroma subsampling                       : 4:2:0
  19. Bit depth                                : 8 bits
  20. Scan type                                : Progressive
  21. Bits/(Pixel*Frame)                       : 0.122
  22. Stream size                              : 3.26 GiB (90%)
  23. Title                                    : Jack.Goes.Home.2016.1080p.WEB-DL.DD5.1.H264-FGT
  24. Language                                 : English
  25. Default                                  : Yes
  26. Forced                                   : No
  27. Color range                              : Limited
  28. Color primaries                          : BT.709
  29. Transfer characteristics                 : BT.709
  30. Matrix coefficients                      : BT.709

  31. Audio
  32. ID                                       : 2
  33. Format                                   : AC-3
  34. Format/Info                              : Audio Coding 3
  35. Commercial name                          : Dolby Digital
  36. Codec ID                                 : A_AC3
  37. Duration                                 : 1 h 44 min
  38. Bit rate mode                            : Constant
  39. Bit rate                                 : 384 kb/s
  40. Channel(s)                               : 6 channels
  41. Channel layout                           : L R C LFE Ls Rs
  42. Sampling rate                            : 48.0 kHz
  43. Frame rate                               : 31.250 FPS (1536 SPF)
  44. Compression mode                         : Lossy
  45. Stream size                              : 287 MiB (8%)
  46. Title                                    : Jack.Goes.Home.2016.1080p.WEB-DL.DD5.1.H264-FGT
  47. Language                                 : English
  48. Service kind                             : Complete Main
  49. Default                                  : Yes
  50. Forced                                   : No

  51. Text
  52. ID                                       : 3
  53. Format                                   : UTF-8
  54. Codec ID                                 : S_TEXT/UTF8
  55. Codec ID/Info                            : UTF-8 Plain Text
  56. Language                                 : English
  57. Default                                  : Yes
  58. Forced                                   : No

  59. Menu
  60. 00:00:00.000                             : en:1
  61. 00:04:28.601                             : en:2
  62. 00:11:19.595                             : en:3
  63. 00:17:21.164                             : en:4
  64. 00:25:15.513                             : en:5
  65. 00:31:41.106                             : en:6
  66. 00:35:51.064                             : en:7
  67. 00:41:10.675                             : en:8
  68. 00:47:41.732                             : en:9
  69. 00:53:55.021                             : en:10
  70. 01:03:09.784                             : en:11
  71. 01:11:34.955                             : en:12
  72. 01:20:45.588                             : en:13
  73. 01:26:24.969                             : en:14
  74. 01:31:47.875                             : en:15
  75. 01:36:11.597                             : en:16
复制代码

杰克回家了 Jack.Goes.Home.2016.1080p.WEB-DL.DD5.1.H264-FGT 3.61GB-2.png 杰克回家了 Jack.Goes.Home.2016.1080p.WEB-DL.DD5.1.H264-FGT 3.61GB-3.png 杰克回家了 Jack.Goes.Home.2016.1080p.WEB-DL.DD5.1.H264-FGT 3.61GB-4.png 杰克回家了 Jack.Goes.Home.2016.1080p.WEB-DL.DD5.1.H264-FGT 3.61GB-5.png 杰克回家了 Jack.Goes.Home.2016.1080p.WEB-DL.DD5.1.H264-FGT 3.61GB-6.png 杰克回家了 Jack.Goes.Home.2016.1080p.WEB-DL.DD5.1.H264-FGT 3.61GB-7.png






回复

使用道具 举报

懒得打字嘛,点击右侧快捷回复 【右侧内容,后台自定义】
您需要登录后才可以回帖 登录 | 立即加入

本版积分规则

Archiver|小黑屋| 蓝光电影网 |网站地图

Copyright © 2021 Comsenz Inc. Powered by 蓝光电影网

蓝光电影网

本站内容由用户自主分享和转载自互联网,转载目的在于传递更多信息,并不代表本网赞同其观点和对其真实性负责。

如有侵权、违反国家法律政策行为,请联系我们,我们会第一时间及时清除和处理!

举报反馈邮箱:[email protected]

快速回复 返回顶部 返回列表