找回密码

蓝光电影网

查看: 202|回复: 0

[惊悚] 催眠专家/元素 Element.2016.1080p.WEB-DL.DD5.1.H264-FGT 2.98GB

[复制链接]
蓝光币
886
发表于 2020-2-3 15:28:17 | 显示全部楼层 |阅读模式
催眠专家/元素 Element.2016.1080p.WEB-DL.DD5.1.H264-FGT 2.98GB-1.png

译  名 催眠专家 / 元素
片  名 Element
年  代 2016
产  地 美国
类  别 惊悚
语  言 英语
上映日期 2016-04-01(美国)
IMDb评分  3.4/10 from 151 users
IMDb链接  https://www.imdb.com/title/tt3645178
豆瓣评分 4.4/10 from 176 users
豆瓣链接 https://movie.douban.com/subject/26821528/
片  长 88分钟
导  演 强·基耶斯 Jon Keeyes
编  剧 Brett Bentman
主  演 迈克尔·艾恩塞德 Michael Ironside
       史蒂芬·迈克尔·克扎达 Steven Michael Quezada
       Paul Stuart
       Mollie Milligan
       Angeline-Rose Troy
       维琳达·戈弗雷 Velinda Godfrey
       Susana Gibb
       Nikki Donley
       Leland Prater


标  签 美国 | 悬疑 | 催眠 | 犯罪 | 2016 | 美国电影 | 惊悚 | 剧情

简  介  

  一位金融顾答辩以从妻子灭亡的阴影中走出来,他筹算经过催眠来想起更多和妻子的回忆。
  1. Video
  2. ID                                       : 1
  3. Format                                   : AVC
  4. Format/Info                              : Advanced Video Codec
  5. Format profile                           : [email protected]
  6. Format settings                          : CABAC / 5 Ref Frames
  7. Format settings, CABAC                   : Yes
  8. Format settings, Reference frames        : 5 frames
  9. Codec ID                                 : V_MPEG4/ISO/AVC
  10. Duration                                 : 1 h 28 min
  11. Bit rate                                 : 4 325 kb/s
  12. Width                                    : 1 916 pixels
  13. Height                                   : 796 pixels
  14. Display aspect ratio                     : 2.40:1
  15. Frame rate mode                          : Constant
  16. Frame rate                               : 23.976 FPS
  17. Color space                              : YUV
  18. Chroma subsampling                       : 4:2:0
  19. Bit depth                                : 8 bits
  20. Scan type                                : Progressive
  21. Bits/(Pixel*Frame)                       : 0.118
  22. Stream size                              : 2.68 GiB (90%)
  23. Title                                    : Element.2016.1080p.WEB-DL.DD5.1.H264-FGT
  24. Language                                 : English
  25. Default                                  : Yes
  26. Forced                                   : No
  27. Color range                              : Limited
  28. Color primaries                          : BT.709
  29. Transfer characteristics                 : BT.709
  30. Matrix coefficients                      : BT.709

  31. Audio
  32. ID                                       : 2
  33. Format                                   : AC-3
  34. Format/Info                              : Audio Coding 3
  35. Commercial name                          : Dolby Digital
  36. Codec ID                                 : A_AC3
  37. Duration                                 : 1 h 28 min
  38. Bit rate mode                            : Constant
  39. Bit rate                                 : 384 kb/s
  40. Channel(s)                               : 6 channels
  41. Channel layout                           : L R C LFE Ls Rs
  42. Sampling rate                            : 48.0 kHz
  43. Frame rate                               : 31.250 FPS (1536 SPF)
  44. Compression mode                         : Lossy
  45. Stream size                              : 244 MiB (8%)
  46. Title                                    : Element.2016.1080p.WEB-DL.DD5.1.H264-FGT
  47. Language                                 : English
  48. Service kind                             : Complete Main
  49. Default                                  : Yes
  50. Forced                                   : No

  51. Text
  52. ID                                       : 3
  53. Format                                   : UTF-8
  54. Codec ID                                 : S_TEXT/UTF8
  55. Codec ID/Info                            : UTF-8 Plain Text
  56. Language                                 : English
  57. Default                                  : Yes
  58. Forced                                   : No

  59. Menu
  60. 00:00:00.000                             : en:Chapter 1
  61. 00:09:10.000                             : en:Chapter 2
  62. 00:18:34.000                             : en:Chapter 3
  63. 00:27:43.000                             : en:Chapter 4
  64. 00:34:52.000                             : en:Chapter 5
  65. 00:43:12.000                             : en:Chapter 6
  66. 00:49:27.000                             : en:Chapter 7
  67. 00:58:15.000                             : en:Chapter 8
  68. 01:05:03.000                             : en:Chapter 9
  69. 01:11:08.000                             : en:Chapter 10
  70. 01:18:18.000                             : en:Chapter 11
  71. 01:25:06.000                             : en:Chapter 12
复制代码

催眠专家/元素 Element.2016.1080p.WEB-DL.DD5.1.H264-FGT 2.98GB-2.png 催眠专家/元素 Element.2016.1080p.WEB-DL.DD5.1.H264-FGT 2.98GB-1.png 催眠专家/元素 Element.2016.1080p.WEB-DL.DD5.1.H264-FGT 2.98GB-4.png 催眠专家/元素 Element.2016.1080p.WEB-DL.DD5.1.H264-FGT 2.98GB-5.png 催眠专家/元素 Element.2016.1080p.WEB-DL.DD5.1.H264-FGT 2.98GB-6.png 催眠专家/元素 Element.2016.1080p.WEB-DL.DD5.1.H264-FGT 2.98GB-7.png






回复

使用道具 举报

懒得打字嘛,点击右侧快捷回复 【右侧内容,后台自定义】
您需要登录后才可以回帖 登录 | 立即加入

本版积分规则

Archiver|小黑屋| 蓝光电影网 |网站地图

Copyright © 2021 Comsenz Inc. Powered by 蓝光电影网

蓝光电影网

本站内容由用户自主分享和转载自互联网,转载目的在于传递更多信息,并不代表本网赞同其观点和对其真实性负责。

如有侵权、违反国家法律政策行为,请联系我们,我们会第一时间及时清除和处理!

举报反馈邮箱:[email protected]

快速回复 返回顶部 返回列表