找回密码

蓝光电影网

查看: 199|回复: 0

[剧情] 爱尔兰都柏林街道上的单身男子俱乐部 Dublin.Oldschool.2018.1080p.WEB-DL.DD5.1.H264-FGT 3.29GB

[复制链接]
蓝光币
1020
发表于 2020-2-3 15:29:28 | 显示全部楼层 |阅读模式
爱尔兰都柏林街道上的单身男人俱乐部 Dublin.Oldschool.2018.1080p.WEB-DL.DD5.1.H264-FGT 3.29GB-1.png

译  名 爱尔兰都柏林街道上的单身男人俱乐部
片  名 Dublin Oldschool
年  代 2018
产  地 爱尔兰
类  别 剧情
语  言 英语
上映日期 2018-06-29(爱尔兰)
IMDb评分  6.1/10 from 581 users
IMDb链接  https://www.imdb.com/title/tt6406848
豆瓣评分 0/10 from 0 users
豆瓣链接 https://movie.douban.com/subject/27200712/
片  长 95分钟
导  演 Dave Tynan
编  剧 Emmet Kirwan / Dave Tynan
主  演 Emmet Kirwan
       Ian Lloyd Anderson
       莎拉·格林 Sarah Greene
       马克·奥哈洛伦 Mark O'Halloran
       莎娜·凯斯雷克 Seána Kerslake
       Liam Heslin
       Ciaran Grace
       Bryan Quinn
       Stephen Jones
       Leah Minto


标  签 爱尔兰 | 青春 | 剧情 | 电音 | techno | [歐美]

简  介  

  Over a drug-fuelled lost weekend in Dublin, Jason, a wannabe DJ reconnects with his estranged homeless brother, a recovering addict.
  1. Video
  2. ID                                       : 1
  3. Format                                   : AVC
  4. Format/Info                              : Advanced Video Codec
  5. Format profile                           : [email protected]
  6. Format settings                          : CABAC / 5 Ref Frames
  7. Format settings, CABAC                   : Yes
  8. Format settings, Reference frames        : 5 frames
  9. Codec ID                                 : V_MPEG4/ISO/AVC
  10. Duration                                 : 1 h 35 min
  11. Bit rate                                 : 4 544 kb/s
  12. Width                                    : 1 912 pixels
  13. Height                                   : 796 pixels
  14. Display aspect ratio                     : 2.40:1
  15. Frame rate mode                          : Constant
  16. Frame rate                               : 24.000 FPS
  17. Color space                              : YUV
  18. Chroma subsampling                       : 4:2:0
  19. Bit depth                                : 8 bits
  20. Scan type                                : Progressive
  21. Bits/(Pixel*Frame)                       : 0.124
  22. Stream size                              : 3.03 GiB (92%)
  23. Title                                    : Dublin.Oldschool.2018.1080p.WEB-DL.DD5.1.H264-FGT
  24. Language                                 : English
  25. Default                                  : Yes
  26. Forced                                   : No
  27. Color range                              : Limited
  28. Color primaries                          : BT.709
  29. Transfer characteristics                 : BT.709
  30. Matrix coefficients                      : BT.709

  31. Audio
  32. ID                                       : 2
  33. Format                                   : AC-3
  34. Format/Info                              : Audio Coding 3
  35. Commercial name                          : Dolby Digital
  36. Codec ID                                 : A_AC3
  37. Duration                                 : 1 h 35 min
  38. Bit rate mode                            : Constant
  39. Bit rate                                 : 384 kb/s
  40. Channel(s)                               : 6 channels
  41. Channel layout                           : L R C LFE Ls Rs
  42. Sampling rate                            : 48.0 kHz
  43. Frame rate                               : 31.250 FPS (1536 SPF)
  44. Compression mode                         : Lossy
  45. Stream size                              : 262 MiB (8%)
  46. Title                                    : Dublin.Oldschool.2018.1080p.WEB-DL.DD5.1.H264-FGT
  47. Language                                 : English
  48. Service kind                             : Complete Main
  49. Default                                  : Yes
  50. Forced                                   : No

  51. Menu
  52. 00:00:00.000                             : en:1
  53. 00:08:34.707                             : en:2
  54. 00:17:49.207                             : en:3
  55. 00:27:59.832                             : en:4
  56. 00:35:00.623                             : en:5
  57. 00:49:53.998                             : en:6
  58. 00:58:47.581                             : en:7
  59. 01:04:56.747                             : en:8
  60. 01:14:14.122                             : en:9
  61. 01:24:38.997                             : en:10
复制代码

爱尔兰都柏林街道上的单身男人俱乐部 Dublin.Oldschool.2018.1080p.WEB-DL.DD5.1.H264-FGT 3.29GB-2.png 爱尔兰都柏林街道上的单身男人俱乐部 Dublin.Oldschool.2018.1080p.WEB-DL.DD5.1.H264-FGT 3.29GB-3.png 爱尔兰都柏林街道上的单身男人俱乐部 Dublin.Oldschool.2018.1080p.WEB-DL.DD5.1.H264-FGT 3.29GB-4.png






回复

使用道具 举报

懒得打字嘛,点击右侧快捷回复 【右侧内容,后台自定义】
您需要登录后才可以回帖 登录 | 立即加入

本版积分规则

Archiver|小黑屋| 蓝光电影网 |网站地图

Copyright © 2021 Comsenz Inc. Powered by 蓝光电影网

蓝光电影网

本站内容由用户自主分享和转载自互联网,转载目的在于传递更多信息,并不代表本网赞同其观点和对其真实性负责。

如有侵权、违反国家法律政策行为,请联系我们,我们会第一时间及时清除和处理!

举报反馈邮箱:[email protected]

快速回复 返回顶部 返回列表