找回密码

蓝光电影网

查看: 268|回复: 0

[剧情] 安娜·妮可 Anna.Nicole.2013.1080p.WEB-DL.DD5.1.H264-FGT 3.13GB

[复制链接]
蓝光币
953
发表于 2020-2-3 15:51:29 | 显示全部楼层 |阅读模式
安娜·妮可 Anna.Nicole.2013.1080p.WEB-DL.DD5.1.H264-FGT 3.13GB-1.png

译  名 安娜·妮可
片  名 Anna Nicole
年  代 2013
产  地 美国
类  别 剧情
语  言 英语
上映日期 2013-06-29(美国)
IMDb评分  5.3/10 from 1968 users
IMDb链接  https://www.imdb.com/title/tt2515242
豆瓣评分 4.8/10 from 35 users
豆瓣链接 https://movie.douban.com/subject/21770249/
导  演 Mary Harron
编  剧 Joe Batteer / John Rice
主  演 Danny Boushebel
       Martin Landau
       Agnes Bruckner


标  签 花花令郎 | 美国 | 实在人物 | 剧情 | 列传 | 艳星 | 实在 | 情色

简  介  

  暂无相关剧情先容
  1. Video
  2. ID                                       : 1
  3. Format                                   : AVC
  4. Format/Info                              : Advanced Video Codec
  5. Format profile                           : [email protected]
  6. Format settings                          : CABAC / 4 Ref Frames
  7. Format settings, CABAC                   : Yes
  8. Format settings, Reference frames        : 4 frames
  9. Codec ID                                 : V_MPEG4/ISO/AVC
  10. Duration                                 : 1 h 28 min
  11. Bit rate                                 : 4 578 kb/s
  12. Width                                    : 1 916 pixels
  13. Height                                   : 1 076 pixels
  14. Display aspect ratio                     : 16:9
  15. Frame rate mode                          : Constant
  16. Frame rate                               : 23.976 FPS
  17. Color space                              : YUV
  18. Chroma subsampling                       : 4:2:0
  19. Bit depth                                : 8 bits
  20. Scan type                                : Progressive
  21. Bits/(Pixel*Frame)                       : 0.093
  22. Stream size                              : 2.83 GiB (90%)
  23. Title                                    : Anna.Nicole.2013.1080p.WEB-DL.DD5.1.H264-FGT
  24. Language                                 : English
  25. Default                                  : Yes
  26. Forced                                   : No
  27. Color range                              : Limited
  28. Color primaries                          : BT.709
  29. Transfer characteristics                 : BT.709
  30. Matrix coefficients                      : BT.709

  31. Audio
  32. ID                                       : 2
  33. Format                                   : AC-3
  34. Format/Info                              : Audio Coding 3
  35. Commercial name                          : Dolby Digital
  36. Codec ID                                 : A_AC3
  37. Duration                                 : 1 h 28 min
  38. Bit rate mode                            : Constant
  39. Bit rate                                 : 384 kb/s
  40. Channel(s)                               : 6 channels
  41. Channel layout                           : L R C LFE Ls Rs
  42. Sampling rate                            : 48.0 kHz
  43. Frame rate                               : 31.250 FPS (1536 SPF)
  44. Compression mode                         : Lossy
  45. Stream size                              : 243 MiB (8%)
  46. Title                                    : Anna.Nicole.2013.1080p.WEB-DL.DD5.1.H264-FGT
  47. Language                                 : English
  48. Service kind                             : Complete Main
  49. Default                                  : Yes
  50. Forced                                   : No

  51. Menu
  52. 00:00:00.000                             : en:1
  53. 00:05:54.000                             : en:2
  54. 00:11:14.000                             : en:3
  55. 00:17:19.000                             : en:4
  56. 00:24:03.000                             : en:5
  57. 00:28:58.000                             : en:6
  58. 00:32:53.000                             : en:7
  59. 00:40:03.000                             : en:8
  60. 00:45:38.000                             : en:9
  61. 00:51:05.000                             : en:10
  62. 00:56:53.000                             : en:11
  63. 01:03:55.000                             : en:12
  64. 01:08:55.000                             : en:13
  65. 01:14:05.000                             : en:14
  66. 01:18:08.000                             : en:15
  67. 01:20:45.000                             : en:16
复制代码

安娜·妮可 Anna.Nicole.2013.1080p.WEB-DL.DD5.1.H264-FGT 3.13GB-2.png 安娜·妮可 Anna.Nicole.2013.1080p.WEB-DL.DD5.1.H264-FGT 3.13GB-3.png 安娜·妮可 Anna.Nicole.2013.1080p.WEB-DL.DD5.1.H264-FGT 3.13GB-1.png 安娜·妮可 Anna.Nicole.2013.1080p.WEB-DL.DD5.1.H264-FGT 3.13GB-5.png 安娜·妮可 Anna.Nicole.2013.1080p.WEB-DL.DD5.1.H264-FGT 3.13GB-6.png 安娜·妮可 Anna.Nicole.2013.1080p.WEB-DL.DD5.1.H264-FGT 3.13GB-7.png






回复

使用道具 举报

懒得打字嘛,点击右侧快捷回复 【右侧内容,后台自定义】
您需要登录后才可以回帖 登录 | 立即加入

本版积分规则

Archiver|小黑屋| 蓝光电影网 |网站地图

Copyright © 2021 Comsenz Inc. Powered by 蓝光电影网

蓝光电影网

本站内容由用户自主分享和转载自互联网,转载目的在于传递更多信息,并不代表本网赞同其观点和对其真实性负责。

如有侵权、违反国家法律政策行为,请联系我们,我们会第一时间及时清除和处理!

举报反馈邮箱:[email protected]

快速回复 返回顶部 返回列表