找回密码

蓝光电影网

查看: 180|回复: 0

[剧情] 受伤的马/破碎的马 Broken.Horses.2015.1080p.AMZN.WEBRip.DDP5.1.x264-ABM 5.65GB

[复制链接]
蓝光币
886
发表于 2020-2-3 15:55:17 | 显示全部楼层 |阅读模式
受伤的马/破裂的马 Broken.Horses.2015.1080p.AMZN.WEBRip.DDP5.1.x264-ABM 5.65GB-1.png

译  名 受伤的马 / 破裂的马
片  名 Broken Horses
年  代 2015
产  地 美国
类  别 剧情 / 悬疑 / 犯罪
语  言 英语
上映日期 2015-04-10(美国)
IMDb评分  5.7/10 from 1993 users
IMDb链接  https://www.imdb.com/title/tt2503954
豆瓣评分 7.6/10 from 136 users
豆瓣链接 https://movie.douban.com/subject/25833917/
导  演 Vidhu Vinod Chopra
编  剧 Vidhu Vinod Chopra / 阿西奇·乔希 Abhijit Joshi
主  演 Sadie Alexandru
       Scott Aschenbrenner
       Chad Bishop
       Jordi Caballero
       David Castro
       约翰·威斯利·查特曼 John Wesley Chatham
       文森特·多诺费奥 Vincent D'Onofrio
       Christian Elizondo
       肖恩·派特里克·弗兰纳里 Sean Patrick Flanery
       Alizabeth Hamer
       托马斯·简 Thomas Jane
       David Lautman
       杰里米·卢克 Jeremy Luc
       Steve Luna
       克里斯·马奎特 Chris Marquette


标  签 美国 | 兄弟情 | 剧情 | 黑帮 | 2015 | 人性 | 美国电影 | 犯罪

简  介  

  故事报告了兄弟间的拘束,并诠释了虔诚的寄义,描画了美国和墨西哥边境的帮派暴力生活。年轻的Buddy Heckum在射击练习场亲眼目击了身为差人的父亲被黑帮成员暗杀,父亲就躺在他的脚边,此时他的心中已经燃起复仇的火焰,以后未几利市刃了仇人。落空父亲的Buddy Heckum不但没有低沉下去,还自动担当起照顾年幼的弟弟Jacob Heckum的义务,让弟弟可以安心进修小提琴的演奏。成年后的弟弟Jacob Heckum(安东·尤金 饰)回到了诞生的小镇,也再次见到了他的哥哥Buddy Heckum(克里斯·马奎特 饰),可是原本他熟悉的生活早已脸孔全非……
  1. Video
  2. ID                                       : 1
  3. Format                                   : AVC
  4. Format/Info                              : Advanced Video Codec
  5. Format profile                           : [email protected]
  6. Format settings                          : CABAC / 4 Ref Frames
  7. Format settings, CABAC                   : Yes
  8. Format settings, Reference frames        : 4 frames
  9. Codec ID                                 : V_MPEG4/ISO/AVC
  10. Duration                                 : 1 h 40 min
  11. Bit rate mode                            : Variable
  12. Bit rate                                 : 7 391 kb/s
  13. Maximum bit rate                         : 15.0 Mb/s
  14. Width                                    : 1 920 pixels
  15. Height                                   : 816 pixels
  16. Display aspect ratio                     : 2.35:1
  17. Frame rate mode                          : Constant
  18. Frame rate                               : 23.976 (24000/1001) FPS
  19. Color space                              : YUV
  20. Chroma subsampling                       : 4:2:0
  21. Bit depth                                : 8 bits
  22. Scan type                                : Progressive
  23. Bits/(Pixel*Frame)                       : 0.197
  24. Stream size                              : 5.19 GiB (92%)
  25. Writing library                          : x264 core 148 r2623 d5b2374
  26. Encoding settings                        : cabac=1 / ref=4 / deblock=1:-1:-1 / analyse=0x3:0x133 / me=umh / subme=9 / psy=1 / psy_rd=1.00:0.15 / mixed_ref=1 / me_range=24 / chroma_me=1 / trellis=2 / 8x8dct=1 / cqm=0 / deadzone=21,11 / fast_pskip=1 / chroma_qp_offset=-3 / threads=25 / lookahead_threads=4 / sliced_threads=0 / nr=150 / decimate=1 / interlaced=0 / bluray_compat=0 / constrained_intra=0 / bframes=8 / b_pyramid=2 / b_adapt=2 / b_bias=0 / direct=3 / weightb=1 / open_gop=0 / weightp=2 / keyint=120 / keyint_min=61 / scenecut=0 / intra_refresh=0 / rc_lookahead=120 / rc=crf / mbtree=1 / crf=18.0 / qcomp=0.60 / qpmin=0 / qpmax=69 / qpstep=4 / vbv_maxrate=15000 / vbv_bufsize=31250 / crf_max=0.0 / nal_hrd=vbr / filler=0 / ip_ratio=1.40 / aq=3:1.00
  27. Default                                  : Yes
  28. Forced                                   : No
  29. Color range                              : Limited
  30. Color primaries                          : BT.709
  31. Transfer characteristics                 : BT.709
  32. Matrix coefficients                      : BT.709

  33. Audio
  34. ID                                       : 2
  35. Format                                   : E-AC-3
  36. Format/Info                              : Enhanced AC-3
  37. Commercial name                          : Dolby Digital Plus
  38. Codec ID                                 : A_EAC3
  39. Duration                                 : 1 h 40 min
  40. Bit rate mode                            : Constant
  41. Bit rate                                 : 640 kb/s
  42. Channel(s)                               : 6 channels
  43. Channel layout                           : L R C LFE Ls Rs
  44. Sampling rate                            : 48.0 kHz
  45. Frame rate                               : 31.250 FPS (1536 SPF)
  46. Compression mode                         : Lossy
  47. Stream size                              : 461 MiB (8%)
  48. Language                                 : English
  49. Service kind                             : Complete Main
  50. Default                                  : Yes
  51. Forced                                   : No

  52. Text
  53. ID                                       : 3
  54. Format                                   : UTF-8
  55. Codec ID                                 : S_TEXT/UTF8
  56. Codec ID/Info                            : UTF-8 Plain Text
  57. Duration                                 : 1 h 33 min
  58. Bit rate                                 : 41 b/s
  59. Count of elements                        : 1114
  60. Stream size                              : 28.7 KiB (0%)
  61. Language                                 : English
  62. Default                                  : No
  63. Forced                                   : No
复制代码

受伤的马/破裂的马 Broken.Horses.2015.1080p.AMZN.WEBRip.DDP5.1.x264-ABM 5.65GB-2.png 受伤的马/破裂的马 Broken.Horses.2015.1080p.AMZN.WEBRip.DDP5.1.x264-ABM 5.65GB-3.png 受伤的马/破裂的马 Broken.Horses.2015.1080p.AMZN.WEBRip.DDP5.1.x264-ABM 5.65GB-4.png






回复

使用道具 举报

懒得打字嘛,点击右侧快捷回复 【右侧内容,后台自定义】
您需要登录后才可以回帖 登录 | 立即加入

本版积分规则

Archiver|小黑屋| 蓝光电影网 |网站地图

Copyright © 2021 Comsenz Inc. Powered by 蓝光电影网

蓝光电影网

本站内容由用户自主分享和转载自互联网,转载目的在于传递更多信息,并不代表本网赞同其观点和对其真实性负责。

如有侵权、违反国家法律政策行为,请联系我们,我们会第一时间及时清除和处理!

举报反馈邮箱:[email protected]

快速回复 返回顶部 返回列表